Files 42316
» » Sevyn Streeter Ft Kid Ink - nEXt 1080p Music Video
Language: English
Size: 93.7 MB
Votes: 714
Downloaded: 65
Category: Video
Format: MP3, FLAC
4.4

File list

  • Sevyn Streeter Ft. Kid Ink - nEXt [Music Video] 1080p [Sbyky].MP4 (93.7 MB)

Watch the official video for Sevyn Streeter's "nEXt" video featuring Kid In. Sevyn Streeter - nEXt ft.

Sevyn Streeter - nEXt ft. Kid Ink. YG - My Nigga (Remix) (Explicit) ft.

Watch the new music video NEXt (feat. TEAM HHS. Sevyn Streeter. news Music videos singles albums.

Categories Videos Posted on March 29, 2014. Kid Ink – nEXt (Video). The latest single from Sevyn Streeter - the Kid Ink-assisted ‘nEXt’ - gets the visual treatment.

Kenny Loggins Footloose. Radio Caprice - Pop music 80's.

Artist: Sevyn Streeter. Kenny Loggins Footloose. Bon Jovi It's My Life. Clean Bandit Solo (feat.

to is the largest czech cloud storage. Please, upgrade your browser, OS or both. Prosím, aktualizujte svůj prohlížeč, operační systém nebo obojí.

Top Recognition of Alice. New Music: September 2019. Today on the radio: FM hits. Loud novelties of the month. Download MP3. MP3 320Kbps, 1. 1 Mb MP3 128Kbps, . 4 Mb. Sevyn Streeter feat. MP3 320Kbps.

Next" (Stylized as nEXt) is a song recorded by American singer Sevyn Streeter taken as the second single from her debut extended play (EP) Call Me Crazy, Bu. by Atlantic Records. by Atlantic Records (2013) after a teaser trailer wa. .


General
Complete name : Sevyn Streeter Ft. Kid Ink - nEXt [Music Video] 1080p [Sbyky].MP4
Format : MPEG-4
Format profile : Base Media
Codec ID : isom
File size : 93.7 MiB
Duration : 4mn 37s
Overall bit rate mode : Variable
Overall bit rate : 2 834 Kbps
Encoded date : UTC 2014-03-25 21:30:04
Tagged date : UTC 2014-03-25 21:30:04
Video
ID : 1
Format : AVC
Format/Info : Advanced Video Codec
Format profile : [email protected]
Format settings, CABAC : Yes
Format settings, ReFrames : 2 frames
Codec ID : avc1
Codec ID/Info : Advanced Video Coding
Duration : 4mn 37s
Bit rate : 2 705 Kbps
Width : 1 920 pixels
Height : 1 080 pixels
Display aspect ratio : 16:9
Frame rate mode : Variable
Frame rate : 23.976 fps
Minimum frame rate : 23.974 fps
Maximum frame rate : 24.220 fps
Color space : YUV
Chroma subsampling : 4:2:0
Bit depth : 8 bits
Scan type : Progressive
Bits/(Pixel*Frame) : 0.054
Stream size : 89.4 MiB (95%)
Encoded date : UTC 2014-03-25 21:30:04
Tagged date : UTC 2014-03-25 21:30:04
Audio
ID : 2
Format : AAC
Format/Info : Advanced Audio Codec
Format profile : LC
Codec ID : 40
Duration : 4mn 37s
Bit rate mode : Variable
Bit rate : 126 Kbps
Channel(s) : 2 channels
Channel positions : Front: L R
Sampling rate : 44.1 KHz
Compression mode : Lossy
Stream size : 4.15 MiB (4%)
Encoded date : UTC 2014-03-25 21:29:47
Tagged date : UTC 2014-03-25 21:29:47
Shared By Sbyky

Related music:
One Direction - You & I 1080p Music Video download One Direction - You & I 1080p Music Video
Video
English
111.1 MB
4.5
/images/5/5/one-direction-you-26-i-1080p-music-video-.jpg
Katy Perry - Birthday 1080p Music Video download Katy Perry - Birthday 1080p Music Video
Video
English
214.8 MB
4.2
/images/5/2/katy-perry-birthday-1080p-music-video-.jpg
Karmin - I Want It All 1080p Music Video download Karmin - I Want It All 1080p Music Video
Video
English
85.2 MB
4.6
/images/5/4/karmin-i-want-it-all-1080p-music-video-.jpg
Shakira - Empire 1080p Music Video download Shakira - Empire 1080p Music Video
Video
English
94.2 MB
4.1
/images/5/0/shakira-empire-1080p-music-video-.jpg
50 Cent Ft Joe - Big Rich Town 1080p Music Video download 50 Cent Ft Joe - Big Rich Town 1080p Music Video
Video
English
72.7 MB
4.3
/images/5/7/50-cent-ft-joe-big-rich-town-1080p-music-video-.jpg
Beyoncé - Pretty Hurts 1080p Music Video download Beyoncé - Pretty Hurts 1080p Music Video
Video
English
178.5 MB
4.2
/images/5/4/beyoncc3a9-pretty-hurts-1080p-music-video-.jpg
Priyanka Chopra - I Can't Make You Love Me 1080p Music Video download Priyanka Chopra - I Can't Make You Love Me 1080p Music Video
Video
English
112.8 MB
4.0
/images/5/3/priyanka-chopra-i-can27t-make-you-love-me-1080p-music-video-.jpg