Files 42316
» » LMFAO - Party Rock Anthem sαηεεү Music Video feat. Lauren Bennett & GoonRock
Language: English
Size: 159.2 MB
Votes: 564
Downloaded: 41
Category: Video
Format: MP3, FLAC
4.8

File list

  • LMFAO - Party Rock Anthem ft. Lauren Bennett GoonRock [sαηεεү].mp4 (159.2 MB)

it/6t Music video by LMFAO performing Party Rock Anthem featuring Lauren Bennett and GoonRock. 50+ видео Воспроизвести все Микс – LMFAO ft.

it/6t Music video by LMFAO performing Party Rock Anthem featuring Lauren Bennett and GoonRock. c) 2011 Interscope on July 1, 2011. Lauren Bennett, GoonRock - Party Rock Anthem (Official Video)YouTube.

Party rock is in the house tonight Everybody just have a good time And we gonna make you lose your mind Everybody just have a good time We just wanna see yaa! Shake That ! In the club party rock look up on your girl She on my jock non stop when we in the spot Booty move away like.

Party rock is in the house tonight Everybody just have a good time And we gonna make you lose your mind Everybody just have a good time We just wanna see yaa! Shake That ! In the club party rock look up on your girl She on my jock non stop when we in the spot Booty move away like she on the block What the track I gots to know Top jeans tatto cause Im rock and roll Half black half white diamino Gain the money, out the door Yoooo!! Im runnin through these hoes like drano I got that devilish flow rock and roll no halo We party rock yea! thats the crew that Im rap in On the rise to the top n. .

GoonRock, LMFAO, Lauren Bennett. Party Rock is in the house tonight Everybody just have a good time And we gon make you lose yo mind Everybody just have a good time. Party Rock is in the house tonight Everybody just have a good time And we gon make you lose yo mind We just wanna see ya (shake that). Everyday I'm shufflin'!

LMFAO – Party Rock Anthem feat. Dj Alex Stwol & LMFAO Feat. Lauren Bennett amp GoonRock – Party Rock Anthem.

LMFAO – Party Rock Anthem feat. Lauren Bennett an. :24. LMFAO Ft. Lauren Bennett & GoonRock – Party Rock Anthem (Russ Chimes Remix). Lauren Bennett & GoonRock – Минус Дол вымпел Party Rock.

Featuring Listenbee & Lauren Bennett. In the club: Party rock Looking for your girl? She on my jock (Huh) Non-stop when we in the spot Booty moving weight like she on the block (Whoo!) Where the drank?

Featuring Listenbee & Lauren Bennett. Produced by Listenbee & Redfoo. Album Sorry for Party Rocking (Deluxe Version). Party Rock Anthem Lyrics. In the club: Party rock Looking for your girl? She on my jock (Huh) Non-stop when we in the spot Booty moving weight like she on the block (Whoo!) Where the drank?

Lauren Bennett & GoonRock). Album: Sorry for Party Rocking (Deluxe Version), 2011. Music video by LMFAO performing Party Rock Anthem featuring Lauren Bennett and GoonRock.

Lauren Bennett & GoonRock). it/6t Music video by LMFAO performing Party Rock Anthem featuring Lauren Bennett and GoonRock.

LMFAO - Party Rock Anthem (feat. awhh yeah! thae faded anthem. Posted 8 years ago8 years ago. Reply. Redfoo Lets Get Ridiculous (Original Music Video). Lauren Bennett & GoonRock).


-
Party Rock Anthem (Final Version)

Format                                   : MPEG-4
Format profile                           : Base Media
Codec ID                                 : isom (isom/iso2/avc1/mp41)
File size                                : 159 MiB
Duration                                 : 6 min 15 s
Overall bit rate                         : 3 556 kb/s
Movie name                               : Party Rock Anthem (feat. Lauren Bennett & GoonRock) - Single
Album                                    : Party Rock Anthem (feat. Lauren Bennett & GoonRock) - Single
Album/Performer                          : LMFAO
Performer                                : LMFAO
Composer                                 : Stefan Gordy, Skyler Gordy, Jamahl Listenbee & Peter Schroeder
Genre                                    : Pop
Recorded date                            : UTC 2011-01-01 08:00:00
Copyright                                : ℗ 2011 Foo & Blu, LLC, under exclusive License to Interscope Records
Cover                                    : Yes
Video
ID                                       : 1
Format                                   : AVC
Format/Info                              : Advanced Video Codec
Format profile                           : [email protected]
Format settings                          : CABAC / 3 Ref Frames
Format settings, CABAC                   : Yes
Format settings, RefFrames               : 3 frames
Codec ID                                 : avc1
Codec ID/Info                            : Advanced Video Coding
Duration                                 : 6 min 15 s
Bit rate                                 : 3 421 kb/s
Width                                    : 1 920 pixels
Height                                   : 1 080 pixels
Display aspect ratio                     : 16:9
Frame rate mode                          : Variable
Frame rate                               : 23.976 (24000/1001) FPS
Minimum frame rate                       : 23.974 FPS
Maximum frame rate                       : 23.981 FPS
Color space                              : YUV
Chroma subsampling                       : 4:2:0
Bit depth                                : 8 bits
Scan type                                : Progressive
Bits/(Pixel*Frame)                       : 0.069
Stream size                              : 153 MiB (96%)
Audio
ID                                       : 2
Format                                   : AAC
Format/Info                              : Advanced Audio Codec
Format profile                           : LC
Codec ID                                 : mp4a-40-2
Duration                                 : 6 min 15 s
Bit rate mode                            : Constant
Bit rate                                 : 126 kb/s
Channel(s)                               : 2 channels
Channel positions                        : Front: L R
Sampling rate                            : 44.1 kHz
Frame rate                               : 43.066 FPS (1024 SPF)
Compression mode                         : Lossy
Stream size                              : 5.62 MiB (4%)
Default                                  : Yes
Alternate group                          : 1

-

Code:

Plz Seed

#Saneey

Related music:
Now That's What I Call Party Anthems 2013 256kbps ThumperDC download Now That's What I Call Party Anthems 2013 256kbps ThumperDC
MP3
English
134.4 MB
4.0
/images/5/7/now-that27s-what-i-call-party-anthems-2013-256kbps-thumperdc.jpg
538 Dance Smash 2011 Volume 3 320KB TBS download 538 Dance Smash 2011 Volume 3 320KB TBS
MP3
English
204.4 MB
4.9
/images/5/6/538-dance-smash-2011-volume-3-320kb-tbs.jpg
LMFAO - Albums Studio 2009-2011 download LMFAO - Albums Studio 2009-2011
Album
English
257.5 MB
4.5
/images/5/3/lmfao-albums-studio-2009-2011.jpg
The Official UK Top 40 Singles Chart 05-06-2011 bit-byte.org download The Official UK Top 40 Singles Chart 05-06-2011 bit-byte.org
MP3
English
351.2 MB
4.4
/images/5/7/the-official-uk-top-40-singles-chart-05-06-2011-bit-byteorg.jpg
Hardwell - Hardwell On Air 19 2011-07-08 download Hardwell - Hardwell On Air 19 2011-07-08
Other
157.4 MB
4.0
/images/5/1/hardwell-hardwell-on-air-19-2011-07-08.jpg
LMFAO - Sorry For Party Rocking 320KB TBS Edition 2011 download LMFAO - Sorry For Party Rocking 320KB TBS Edition 2011
MP3
English
125.5 MB
4.0
/images/5/7/lmfao-sorry-for-party-rocking-320kb-tbs-edition-2011.jpg
VA-The Official UK Top 40 Singles Chart 01-01-2012-MFA download VA-The Official UK Top 40 Singles Chart 01-01-2012-MFA
Album
English
345.7 MB
4.3
/images/5/7/va-the-official-uk-top-40-singles-chart-01-01-2012-mfa.jpg
LMFAO download LMFAO
MP3
English
125.5 MB
4.0
/images/5/3/lmfao.jpg
LMFAO - Party Rock Anthem [email protected] download LMFAO - Party Rock Anthem [email protected]
MP3
English
10.1 MB
4.6
/images/5/2/lmfao-party-rock-anthem-2011-single40320.jpg
LMFAO Ft Lauren Bennett & GoonRock - Party Rock Anthem 1080p Music Video download LMFAO Ft Lauren Bennett & GoonRock - Party Rock Anthem 1080p Music Video
Video
English
229.2 MB
4.4
/images/5/6/lmfao-ft-lauren-bennett-26-goonrock-party-rock-anthem-1080p-music-video-.jpg