Files 42316
» » Macklemore & Ryan Lewis Ft Ray Dalton - Can't Hold Us 720p Music Video
Language: English
Size: 104.7 MB
Votes: 036
Downloaded: 15
Category: Video
Format: MP3, FLAC
4.6

File list

  • Macklemore & Ryan Lewis Ft. Ray Dalton - Can't Hold Us [Music Video] 720p [Sbyky].mp4 (104.7 MB)

Music Video: Written By Ben Haggerty Ryan Lewis Tricia Davis. Can we go back, this is the moment Tonight is the night, we'll fight till it's over So we put our hands up like the ceiling can't hold us Like the ceiling can't hold us. Категория.

Music Video: Written By Ben Haggerty Ryan Lewis Tricia Davis. Directed By Ryan Lewis Jason Koenig Jon Jon Augustavo. Produced By Tricia Davis Honna Kimmerer Jenny Koenig. Starring Ben Haggerty Ryan Lewis Ray Dalton Owuor Arunga Da Kadu Brown. Director of Photography Jason Koenig Ryan Lewis Mego Lin. Stedicam Operators Chris Duerkopp Rhys Duncan Ant Ireland Alex Kornreich. Macklemore & Ryan Lewis.

Ray dalton ( official music video). Macklemore & ryan lewis can' t hold us feat. Ray dalton ( official music video).

High Level Karaoke – Can't Hold Us (In the Style of Macklemore &. :25. РУТ-DJ PLATON - HIT MIX JUNE - 08 – РУТ-Macklemore & Ryan Lewis ft.

ru Macklemore and Ryan Lewis – Cant Hold Us Featuring Ray Dalton muzmo. Macklemore & Ryan Lewis – Can t Hold Us feat Ray Dalton) (zaycev. Macklemore & Ryan Lewis – Can t Hold Us feat Ray Dalton RADIO. High Level Karaoke – Can't Hold Us (In the Style of Macklemore &. Macklemore & Ryan Lewis – Can t Hold Us feat. Macklemore & Ryan Lewis – Can t Hold Us feat Ray Dalton.

Ray Dalton Can't Hold Us? Заходите на наш сайт - слушайте и скачивайте музыку бесплатно. Для вас мы собрали всё самое лучшее. Let the night come, before the fight's won Some might run against the test But those that triumph, embrace the fight cause The fear is there to prove that courage exists Hope.

Дуэт Маклмора и Райана Льюиса за последний год утвердился в звании героев независимого хип-хопа и авторов едва ли не самого успешного хип-хоп хита этого года (конечно же, речь идет о той самой песне про сэконд-хенды)

Дуэт Маклмора и Райана Льюиса за последний год утвердился в звании героев независимого хип-хопа и авторов едва ли не самого успешного хип-хоп хита этого года (конечно же, речь идет о той самой песне про сэконд-хенды). Судя по всему, о пройденном пути и повествует новая видеоработа, снятая на один из лучших треков альбома "The Heist".


General
Complete name : Macklemore & Ryan Lewis Ft. Ray Dalton - Can't Hold Us [Music Video] 720p [Sbyky].mp4
Format : MPEG-4
Format profile : Base Media / Version 2
Codec ID : mp42
File size : 105 MiB
Duration : 7mn 3s
Overall bit rate mode : Variable
Overall bit rate : 2 073 Kbps
Encoded date : UTC 2013-04-24 04:25:29
Tagged date : UTC 2013-04-24 04:25:29
Video
ID : 1
Format : AVC
Format/Info : Advanced Video Codec
Format profile : [email protected]
Format settings, CABAC : Yes
Format settings, ReFrames : 1 frame
Codec ID : avc1
Codec ID/Info : Advanced Video Coding
Duration : 7mn 3s
Bit rate : 1 879 Kbps
Maximum bit rate : 6 536 Kbps
Width : 1 280 pixels
Height : 720 pixels
Display aspect ratio : 16:9
Frame rate mode : Constant
Frame rate : 23.976 fps
Color space : YUV
Chroma subsampling : 4:2:0
Bit depth : 8 bits
Scan type : Progressive
Bits/(Pixel*Frame) : 0.085
Stream size : 94.9 MiB (91%)
Tagged date : UTC 2013-04-24 04:25:36
Audio
ID : 2
Format : AAC
Format/Info : Advanced Audio Codec
Format profile : LC
Codec ID : 40
Duration : 7mn 3s
Bit rate mode : Variable
Bit rate : 192 Kbps
Maximum bit rate : 202 Kbps
Channel(s) : 2 channels
Channel positions : Front: L R
Sampling rate : 44.1 KHz
Compression mode : Lossy
Stream size : 9.69 MiB (9%)
Title : IsoMedia File Produced by Google, 5-11-2011
Encoded date : UTC 2013-04-24 04:25:33
Tagged date : UTC 2013-04-24 04:25:36
Shared By Sbyky

Related music:
Emily Kinney - Kids 720p Music Video download Emily Kinney - Kids 720p Music Video
Video
English
60.5 MB
4.2
/images/5/3/emily-kinney-kids-720p-music-video-.jpg
Bon Jovi - Because We Can 720p Music Video download Bon Jovi - Because We Can 720p Music Video
Video
English
52.1 MB
4.7
/images/5/0/bon-jovi-because-we-can-720p-music-video-.jpg
Cher Lloyd Ft T I - I Wish 720p Music Video download Cher Lloyd Ft T I - I Wish 720p Music Video
Video
English
60.6 MB
4.3
/images/5/1/cher-lloyd-ft-t-i-i-wish-720p-music-video-.jpg
John Legend - All Of Me 720p Music Video download John Legend - All Of Me 720p Music Video
Video
English
62.7 MB
4.1
/images/5/4/john-legend-all-of-me-720p-music-video-.jpg
Taylor Swift - We Are Never Ever Getting Back Together 720p Music Video download Taylor Swift - We Are Never Ever Getting Back Together 720p Music Video
Video
English
61.4 MB
4.0
/images/5/0/taylor-swift-we-are-never-ever-getting-back-together-720p-music-video-.jpg
Stromae - Papaoutai 720p Music Video download Stromae - Papaoutai 720p Music Video
Video
French
41.8 MB
4.6
/images/5/0/stromae-papaoutai-720p-music-video-.jpg
Ke$ha - Dirty Love 720p Music Video download Ke$ha - Dirty Love 720p Music Video
Video
English
77.0 MB
4.1
/images/5/7/ke24ha-dirty-love-720p-music-video-.jpg
J Cole - Work Out 720p Music Video download J Cole - Work Out 720p Music Video
Video
English
79.9 MB
4.2
/images/5/9/j-cole-work-out-720p-music-video-.jpg
Little Mix - Little Me 720p Music Video download Little Mix - Little Me 720p Music Video
Video
English
37.9 MB
4.1
/images/5/5/little-mix-little-me-720p-music-video-.jpg