Files 42316
» » Bandook - Badshah & Raxstar - Full Song 720p - Team truHD H 264
Language: Hindi
Size: 66.9 MB
Votes: 121
Downloaded: 27
Category: Video
Format: MP3, FLAC
4.8

File list

  • Bandook - Badshah & Raxstar - Full Song 720p - Team truHD H.264.jpg (290.9 KB)
  • Bandook - Badshah & Raxstar - Full Song 720p - Team truHD H.264.mp4 (66.6 MB)
  • Seeding From HostDzire.txt (0.1 KB)
  • Torrent Downloaded from Glodls.to.txt (0.2 KB)
  • Torrent Downloaded from kat.cr.txt (0.2 KB)

info Bandook-Badshah- Other. to B ndook - B dsh h & R xst r - Full Song 720p - Te m truHD . 64 Music.

info Bandook-Badshah- Other. com Bandook: Badshah & Raxstar: Full Song 720p: Team TruHD . 64 Movies. am Bandook - Badshah and Raxstar - Full Song 720p - Team truHD H 264 Movies. ch Bandook-Badshah- amp Other.

Bandook - Badshah & Raxstar - Full Song 720p - Team truHD . 64. King Regards truHD HEVC Team. Get this torrent PLAY/STREAM TORRENT.

Music Producer: Sunit Lyrics: Badshah & Raxstar Singers: Badshah, Raxstar Presenter: MTV Spoken Word. Awesome Romantic Song <3. 13,740,376 Views · 17 August. 285,161 Views · 20 September. De Férias Com O Ex Brasil Ep. 11 Alguém aí quer um shot? MTV Brasil.

O Soniye (Titoo MBA) - Arijit Singh -320Kbps Full Mp3 Song with Lyrics.

Bandook (featuring Badshah). "Raxstar and Zack Knight Team up For a Powerhouse Collaboration with New Track, "Queen"". "Zack Knight and Raxstar come together again for a new single". Raxstar (14 February 2011), Raxstar - Jaaneman (Official Video HD) SunitMusic, retrieved 17 May 2018. Raxstar (7 August 2011), Raxstar - The Other Man ft RKZ (Official Video HD) SunitMusic, retrieved 17 May 2018. Raxstar (13 May 2011), Raxstar - Dhalsim (Official Audio), retrieved 17 May 2018.

Seeding From High Speed Seedbox. Bandook - Badshah & Raxstar - Full Song 720p - Team truHD . 00, mixed ref 1, me range.

Queen - Zack Knight - Raxstar - Full Song 720p - Team truHD . Wakhra Swag - Official Video - Navv Inder feat. Badshah - Full HD 1080p - Team truHD HEVC. 18 MB - Extensions: jpg,mp4. Bandook - Badshah Ft. Raxstar. 18 MB - Extensions: mp3. Fashion Waley Babu - Ft Goodshah & BADSHAH - Team truHD HEVC. 79 MB - Extensions: mp4,jpg. Meet Me Daily Baby 1080p Full HD Song - Welcome Back - Team truHD HEVC. 66 MB - Extensions: jpg,mp4. Iss Qadar Pyar Hai 1080p Full HD Song - Ankit Tiwari - Bhaag Johnny - Team truHD HEVC.

Bandook Badshah & Raxstar. Singer's: Badshah, Raxstar. Genre: Single Track, Released: 01-08-2014. Top 20 Songs By Badshah, Raxstar.

Download Badshah - Bandook. Spoken Word: Best 2 songs. Diljit Dosanjh - This Singh Is so Stylish 03:51. Raftaar - Swag Mera Desi 04:07. Badshah: best 2 tracks. Arjun Kanungo, Badshah - Baaki Baatein Peene Baad (Shots) Baaki Baatein Peene Baad (Shots), 2015 03:40. Badshah, Girik Aman - Take Your Sandals Off (From "Terminator") Terminator, 2013 03:45.

Seeding From High Speed Seedbox



Bandook - Badshah & Raxstar - Full Song 720p - Team truHD H.264


Source: WEB-DL
Source File Info:
General
Format                                   : MPEG-4
Format profile                           : Base Media / Version 2
Codec ID                                 : mp42
File size                                : 71.5 MiB
Duration                                 : 3mn 47s
Overall bit rate mode                    : Variable
Overall bit rate                         : 2 632 Kbps
Encoded date                             : UTC 2014-11-29 07:56:46
Tagged date                              : UTC 2014-11-29 07:56:46
Video
ID                                       : 1
Format                                   : AVC
Format/Info                              : Advanced Video Codec
Format profile                           : [email protected]
Format settings, CABAC                   : Yes
Format settings, ReFrames                : 1 frame
Codec ID                                 : avc1
Codec ID/Info                            : Advanced Video Coding
Duration                                 : 3mn 47s
Bit rate                                 : 2 437 Kbps
Maximum bit rate                         : 11.9 Mbps
Width                                    : 1 280 pixels
Height                                   : 720 pixels
Display aspect ratio                     : 16:9
Frame rate mode                          : Constant
Frame rate                               : 25.000 fps
Color space                              : YUV
Chroma subsampling                       : 4:2:0
Bit depth                                : 8 bits
Scan type                                : Progressive
Bits/(Pixel*Frame)                       : 0.106
Stream size                              : 66.2 MiB (93%)
Tagged date                              : UTC 2014-11-29 07:56:50
Audio
ID                                       : 2
Format                                   : AAC
Format/Info                              : Advanced Audio Codec
Format profile                           : LC
Codec ID                                 : 40
Duration                                 : 3mn 47s
Bit rate mode                            : Variable
Bit rate                                 : 192 Kbps
Maximum bit rate                         : 201 Kbps
Channel(s)                               : 2 channels
Channel positions                        : Front: L R
Sampling rate                            : 44.1 KHz
Compression mode                         : Lossy
Stream size                              : 5.22 MiB (7%)

Encoder: truHD HEVC Encoding Team


Encoded File Info:
General
Format                                   : MPEG-4
Format profile                           : Base Media / Version 2
Codec ID                                 : mp42
File size                                : 66.6 MiB
Duration                                 : 3mn 47s
Overall bit rate mode                    : Variable
Overall bit rate                         : 2 451 Kbps
Encoded date                             : UTC 2036-02-06 06:28:16
Tagged date                              : UTC 2036-02-06 06:28:16
Writing application                      : HandBrake 0.10.2 2015060900
Video
ID                                       : 1
Format                                   : AVC
Format/Info                              : Advanced Video Codec
Format profile                           : [email protected]
Format settings, CABAC                   : Yes
Format settings, ReFrames                : 5 frames
Codec ID                                 : avc1
Codec ID/Info                            : Advanced Video Coding
Duration                                 : 3mn 47s
Bit rate                                 : 2 285 Kbps
Width                                    : 1 280 pixels
Height                                   : 644 pixels
Display aspect ratio                     : 1.988
Frame rate mode                          : Constant
Frame rate                               : 25.000 fps
Color space                              : YUV
Chroma subsampling                       : 4:2:0
Bit depth                                : 8 bits
Scan type                                : Progressive
Bits/(Pixel*Frame)                       : 0.111
Stream size                              : 62.1 MiB (93%)
Writing library                          : x264 core 142 r2479 dd79a61
Encoding settings                        : cabac=1 / ref=5 / deblock=1:0:0 / analyse=0x3:0x113 / me=umh / subme=8 / psy=1 / psy_rd=1.00:0.00 / mixed_ref=1 / me_range=16 / chroma_me=1 / trellis=1 / 8x8dct=1 / cqm=0 / deadzone=21,11 / fast_pskip=1 / chroma_qp_offset=-2 / threads=3 / lookahead_threads=1 / sliced_threads=0 / nr=0 / decimate=1 / interlaced=0 / bluray_compat=0 / constrained_intra=0 / bframes=3 / b_pyramid=2 / b_adapt=2 / b_bias=0 / direct=3 / weightb=1 / open_gop=0 / weightp=2 / keyint=250 / keyint_min=25 / scenecut=40 / intra_refresh=0 / rc_lookahead=50 / rc=crf / mbtree=1 / crf=27.0 / qcomp=0.60 / qpmin=0 / qpmax=69 / qpstep=4 / ip_ratio=1.40 / aq=1:1.00
Encoded date                             : UTC 2036-02-06 06:28:16
Tagged date                              : UTC 2036-02-06 06:28:16
Color primaries                          : BT.709
Transfer characteristics                 : BT.709
Matrix coefficients                      : BT.709
Audio
ID                                       : 2
Format                                   : AAC
Format/Info                              : Advanced Audio Codec
Format profile                           : LC
Codec ID                                 : 40
Duration                                 : 3mn 47s
Bit rate mode                            : Variable
Bit rate                                 : 160 Kbps
Channel(s)                               : 2 channels
Channel positions                        : Front: L R
Sampling rate                            : 44.1 KHz
Compression mode                         : Lossy
Stream size                              : 4.36 MiB (7%)
Title                                    : truHD HEVC
Encoded date                             : UTC 2036-02-06 06:28:16
Tagged date                              : UTC 2036-02-06 06:28:16
ScreenShots:

Like Us On FB And Request Accepted @ FB Page Link
KickAssTorrents: KAT Profile
GloTorrents: GloTorrent Profile
ThePirateBay: ThePirateBay Profile
Torrents: Profile


Note: All Videos Uploaded By Me Are For Preview Purpose. If You Like IT,GoogleIT And Buy IT - Thanks

King Regards
truHD HEVC Team
Share Among Friends And Relatives:

Related music:
Fashion Waley Babu - Ft Goodshah & BADSHAH - Team truHD HEVC download Fashion Waley Babu - Ft Goodshah & BADSHAH - Team truHD HEVC
Video
Hindi
37.8 MB
4.3
/images/5/5/fashion-waley-babu-ft-goodshah-26-badshah-team-truhd-hevc.jpg
Inna Ft J Balvin - Cola Song 720p Music Video download Inna Ft J Balvin - Cola Song 720p Music Video
Video
English
57.2 MB
4.0
/images/5/1/inna-ft-j-balvin-cola-song-720p-music-video-.jpg
Ragini MMS 2 - Baby Doll 720p Sunny Leone Song download Ragini MMS 2 - Baby Doll 720p Sunny Leone Song
Video
Hindi
44.8 MB
4.3
/images/5/1/ragini-mms-2-baby-doll-720p-sunny-leone-song-.jpg
Queen - Zack Knight - Raxstar - Full Song 720p - Team truHD H 264 download Queen - Zack Knight - Raxstar - Full Song 720p - Team truHD H 264
Video
Hindi
24.8 MB
4.2
/images/5/1/queen-zack-knight-raxstar-full-song-720p-team-truhd-h-264.jpg
A$AP Rocky - Angels 720p Music Video download A$AP Rocky - Angels 720p Music Video
Video
English
66.0 MB
4.2
/images/5/2/a24ap-rocky-angels-720p-music-video-.jpg
Redlight King - Old Man 720p Music Video download Redlight King - Old Man 720p Music Video
Video
English
38.7 MB
4.4
/images/5/2/redlight-king-old-man-720p-music-video-.jpg