Files 42316
» » Sheila Ki Jawani full Hindi Song Tees Maar Khan Feat Katrina Kaif HD Video Innovative Team 2010
Language: Hindi
Size: 18.6 MB
Votes: 372
Downloaded: 34
Category: Video
Format: MP3, FLAC
4.0

File list

  • Sheila Ki Jawani full Hindi Song Tees Maar Khan (2010).avi (18.6 MB)
  • Sheila Ki Jawani full Hindi Song Tees Maar Khan (2010).avi.txt (4.4 KB)
  • www..org.txt (0.0 KB)
  • www.kickasstorrent.com.txt (0.0 KB)
  • www.Limetorrents.com.txt (0.0 KB)

This is an 2010 Hindi action comedy film directed by Farah Khan, starring Akshay Kumar and Katrina Kaif in the lead .

This is an 2010 Hindi action comedy film directed by Farah Khan, starring Akshay Kumar and Katrina Kaif in the lead roles and Akshaye Khanna in a cameo. Salman Khan and Anil Kapoor make special appearances in the film. Song - Sheila Ki Jawani Movie - Tees Maar Khan Singer - Vishal Dadlani, Sunidhi Chauhan Lyricist - Vishal Dadlani Music Director - Vishal-Shekhar Artist - Akshay Kumar, Katrina Kaif, Akshaye Khanna, Others Music On - T-Series.

02 Sheila Ki Jawani - Vishal Dadlani, Sunidhi Chauhan. Current track: Sheila Ki JawaniSheila Ki Jawani. Drop your files here.

Video Song is brought to you by innovative team. Sheila Ki Jawani full Hindi Song Tees Maar Khan (2010) Feat Katrina Kaif HD Video Innovative Team.

Sheila Ki Jawani ~~ Tees Maar Khan (Full Video Song). Katrina Kaif & Akshay Kumar. Dildara- Full Video Song-Ra. one 2011 ft shahrukh khan kareena kapoor(HD). Шри-Ланки и индийской музыки. Salaam-E-Ishq (Full Song) Film - Salaam-E-Ishq. Aao Sunao Pyar Ki Ek Kahani in High Definition Hirtik Roshan & Priyanka Chopra Krish.

Katrina Kaif Most Seductive Video - Sheila Ki Jawani. Sheila Ki Jawan group dance v did during the mehendi. Katrina Kaif revives her chemistry with Salman Khan in Laapata from Ek Tha Tiger! It is the latest romantic song from Ek Tha Tiger. Eset smart security 5 new release date 2017. Katrina's kills in this sexy number! ▶ "Sheila Ki Jawani" Full Song Tees Maar Khan ( With Lyrics) Katrina Kaif - YouTube. Director Kabir Khan is keeping his fingers crossed hoping that his blockbuster project 'Ek Tha Tiger', which was premiered here today, is accepted by the Japanese audience and proves to be a success as it was in India.

Download Full HD MP4 Video Song Sheila Ki Jawani from the Movie Tees Maar . This song ‘Sheila Ki Jawani’ is from the movie 'Tees Maar Khan'. Kumar, Katrina Kaif, Akshaye Khanna, Farah Khan, Vishal-Shekhar, Shirish Kunder, akshay and katrina, farha, vishal.

Download Full HD MP4 Video Song Sheila Ki Jawani from the Movie Tees Maar Khan. You can download Sheila Ki Jawani (Tees Maar Khan) 720 P & 1080 P High Definition Mp4 Blu-ray Quality video to your device for free. Starring is Akshay Kumar, Katrina Kaif, Akshaye Khanna. And Sung by Vishal Dadlani & Sunidhi Chauhan. Tees Maar Khan More Content. Tees Maar Khan HD Videos.


Innovative Team
Screen Shots
Click Me to view screenshots http://adf.ly/251744/screenshots
General
Complete name : Sheila Ki Jawani full Hindi Song Tees Maar Khan .avi
Format : AVI
Format/Info : Audio Video Interleave
File size : 18.6 MiB
Duration : 2mn 53s
Overall bit rate : 899 Kbps
Writing application : MEncoder Sherpya-SVN-r29355-4.5.0
Writing library : MPlayer
Video
ID : 0
Format : MPEG-4 Visual
Format profile : [email protected]
Format settings, BVOP : No
Format settings, QPel : No
Format settings, GMC : No warppoints
Format settings, Matrix : Default (H.263)
Codec ID : XVID
Codec ID/Hint : XviD
Duration : 2mn 53s
Bit rate : 771 Kbps
Width : 640 pixels
Height : 272 pixels
Display aspect ratio : 2.35:1
Frame rate : 25.000 fps
Color space : YUV
Chroma subsampling : 4:2:0
Bit depth : 8 bits
Scan type : Progressive
Bits/(Pixel*Frame) : 0.177
Stream size : 15.9 MiB (86%)
Writing library : XviD 1.2.1 (UTC 2008-12-04)
Audio
ID : 1
Format : MPEG Audio
Format version : Version 1
Format profile : Layer 3
Mode : Joint stereo
Mode extension : MS Stereo
Codec ID : 55
Codec ID/Hint : MP3
Duration : 2mn 53s
Bit rate mode : Variable
Bit rate : 115 Kbps
Channel(s) : 2 channels
Sampling rate : 44.1 KHz
Stream size : 2.39 MiB (13%)
Alignment : Aligned on interleaves
Interleave, duration : 26 ms (0.65 video frame)
Interleave, preload duration : 431 ms
Video Song is brought to you by innovative team
If you like this torrent then please seed and leave as many
comments as possible.
And Plz seed as thank you...
Movie is Brought to you by Innovative Team
Ashutosh.
and remember

Comments:
RUL
RUL
wat dude r u kidding full song is 4.30 min and its only 2.30 min dont download this
Mopimicr
Mopimicr
not good
Related music:
Flo Rida ft Nelly Furtado - Jump Official Music Video download Flo Rida ft Nelly Furtado - Jump Official Music Video
Video
English
83.1 MB
4.3
/images/5/8/flo-rida-ft-nelly-furtado-jump-official-music-video-.jpg
Anna Lesko feat Gilberto - Go Crazy HDRip 2012-MFA download Anna Lesko feat Gilberto - Go Crazy HDRip 2012-MFA
Video
English
51.6 MB
4.8
/images/5/3/anna-lesko-feat-gilberto-go-crazy-hdrip-2012-mfa.jpg
Mims - This is Why i am hot 1080p download Mims - This is Why i am hot 1080p
Video
English
268.3 MB
4.7
/images/5/4/mims-this-is-why-i-am-hot-1080p.jpg
Akcent feat Sandra N - I'm Sorry HDRip 2012-MFA download Akcent feat Sandra N - I'm Sorry HDRip 2012-MFA
Video
English
38.7 MB
4.2
/images/5/4/akcent-feat-sandra-n-i27m-sorry-hdrip-2012-mfa.jpg
Connect-R - Vara nu dorm 2012-MFA download Connect-R - Vara nu dorm 2012-MFA
Video
English
141.6 MB
4.5
/images/5/1/connect-r-vara-nu-dorm-2012-mfa.jpg
Lady Gaga - Judas - Xclusive - D$R 2011 720p-HD download Lady Gaga - Judas - Xclusive - D$R 2011 720p-HD
Video
English
115.4 MB
4.7
/images/5/5/lady-gaga-judas-xclusive-d24r-2011-720p-hd.jpg
Linkin Park - Points of Authority Anky LIVE HQ download Linkin Park - Points of Authority Anky LIVE HQ
Video
English
91.7 MB
4.9
/images/5/2/linkin-park-points-of-authority-anky-live-hq.jpg
Kamelia - Prima oara 2012-MFA Official Video download Kamelia - Prima oara 2012-MFA Official Video
Video
English
57.7 MB
4.5
/images/5/1/kamelia-prima-oara-2012-mfa-official-video.jpg
Miley Cyrus - Who Owns My Heart chitra.dmj download Miley Cyrus - Who Owns My Heart chitra.dmj
Video
English
24.9 MB
4.1
/images/5/4/miley-cyrus-who-owns-my-heart-chitradmj.jpg