Files 42316
» » Linkin Park - Powerless Living Things 1080p
Language: English
Size: 81.2 MB
Votes: 720
Downloaded: 64
Category: Video
Format: MP3, FLAC
4.9

File list

  • Linkin Park-Pwerless [Abraham Lincoln-Vampire Hunter][Living Things][1080p].mp4 (81.0 MB)
  • Linkin Park-Pwerless [Abraham Lincoln-Vampire Hunter][Living Things][1080p].mp4_thumbs_[2012.07.07_11.10.34].jpg (225.5 KB)
  • Torrent downloaded from Demonoid.com.txt (0.0 KB)
  • Torrent downloaded from h33t.com.txt (0.0 KB)
  • Torrent downloaded from .org.txt (0.0 KB)

The Little Things Give You Away.

The Little Things Give You Away.

Produced by Mike Shinoda & Rick Rubin. You hid your skeletons when I had shown you mine You woke the devil that I thought you'd left behind I saw the evidence, the crimson soaking through Ten thousand promises, ten thousand ways to lose. And you held it all But you were careless to let it fall You held it all And I was by your side, powerless

Слушай музыку только в хорошем качестве.



[font=Verdana]"Powerless", the twelfth and closing track of the album, is featured in the closing credits to the film Abraham Lincoln: Vampire Hunter.[1] A performance music video of "Powerless" featuring scenes from the film was released on Yahoo!.[/font]

Code:


Format : MPEG-4
Format profile : Base Media / Version 2
Codec ID : mp42
File size : 81.0 MiB
Duration : 3mn 3s
Overall bit rate mode : Variable
Overall bit rate : 3 701 Kbps
Encoded date : UTC 2012-06-17 18:01:59
Tagged date : UTC 2012-06-17 18:01:59
gsst : 0
gstd : 183691
gssd : BADC23564HH1341593736940004
gshh : o-o.preferred.iad09s21.v4.lscache8.c.youtube.com
Video
ID : 1
Format : AVC
Format/Info : Advanced Video Codec
Format profile : [email protected]
Format settings, CABAC : Yes
Format settings, ReFrames : 1 frame
Codec ID : avc1
Codec ID/Info : Advanced Video Coding
Duration : 3mn 3s
Bit rate : 3 559 Kbps
Maximum bit rate : 7 601 Kbps
Width : 1 920 pixels
Height : 1 080 pixels
Display aspect ratio : 16:9
Frame rate mode : Constant
Frame rate : 24.000 fps
Color space : YUV
Chroma subsampling : 4:2:0
Bit depth : 8 bits
Scan type : Progressive
Bits/(Pixel*Frame) : 0.072
Stream size : 77.9 MiB (96%)
Tagged date : UTC 2012-06-17 18:01:59
Audio
ID : 2
Format : AAC
Format/Info : Advanced Audio Codec
Format profile : LC
Codec ID : 40
Duration : 3mn 3s
Bit rate mode : Variable
Bit rate : 139 Kbps
Maximum bit rate : 199 Kbps
Channel(s) : 2 channels
Channel positions : Front: L R
Sampling rate : 44.1 KHz
Compression mode : Lossy
Stream size : 3.04 MiB (4%)
Title : IsoMedia File Produced by Google, 5-11-2011
Encoded date : UTC 2012-06-17 18:01:59
Tagged date : UTC 2012-06-17 18:01:59


Related music:
SlaughterHouse - Goodbye 720p kely258 download SlaughterHouse - Goodbye 720p kely258
Video
English
50.9 MB
4.3
/images/5/6/slaughterhouse-goodbye-720p-kely258.jpg
Rihanna - Where Have You Been 1080p Music Video download Rihanna - Where Have You Been 1080p Music Video
Video
English
140.9 MB
4.3
/images/5/3/rihanna-where-have-you-been-1080p-music-video-.jpg
Flo Rida - Whistle 1080p Music Video download Flo Rida - Whistle 1080p Music Video
Video
English
145.4 MB
4.3
/images/5/7/flo-rida-whistle-1080p-music-video-.jpg
LMFAO - Sexy and I Know It 1080p Music Video download LMFAO - Sexy and I Know It 1080p Music Video
Video
English
147.4 MB
4.9
/images/5/6/lmfao-sexy-and-i-know-it-1080p-music-video-.jpg
Rihanna - Where Have You Been 720p Music Video download Rihanna - Where Have You Been 720p Music Video
Video
English
71.7 MB
4.8
/images/5/3/rihanna-where-have-you-been-720p-music-video-.jpg
Taylor Swift - I Knew You Were Trouble 720p Music Video download Taylor Swift - I Knew You Were Trouble 720p Music Video
Video
English
52.1 MB
4.3
/images/5/1/taylor-swift-i-knew-you-were-trouble-720p-music-video-.jpg
Maroon 5 - One More Night 1080p Music Video download Maroon 5 - One More Night 1080p Music Video
Video
English
162.8 MB
4.4
/images/5/9/maroon-5-one-more-night-1080p-music-video-.jpg
Ik Tu Hi Tu Hi - Mausam 720P HD Video Song 2011 download Ik Tu Hi Tu Hi - Mausam 720P HD Video Song 2011
Video
Hindi
86.3 MB
4.4
/images/5/7/ik-tu-hi-tu-hi-mausam-720p-hd-video-song-2011.jpg
Nicki Minaj - Va Va Voom 720p download Nicki Minaj - Va Va Voom 720p
Video
English
50.5 MB
4.9
/images/5/8/nicki-minaj-va-va-voom-720p-.jpg