Files 42316
» » Beyonce-xo HDTV 1080p-sc
Language: English
Size: 112.3 MB
Votes: 478
Downloaded: 17
Category: Video
Format: MP3, FLAC
4.4

File list

  • Beyonce-xo.HDTV.1080p-sc.mp4 (112.3 MB)
  • Beyonce-xo.HDTV.1080p-sc.nfo (4.1 KB)

Ryan Tedder, TheDream, Beyoncé.

Ryan Tedder, TheDream, Beyoncé.

Здесь вы можете послушать онлайн Beyoncé - 1. Музыка похожая на Beyoncé - 14.

Здесь вы можете послушать онлайн Beyoncé - 14. XO/Halo (Beyonce Made in America 2015) AUDIO HD и другие mp3 песни этого артиста и похожие треки жанров rnb, pop, female vocalists, soul. XO/Halo (Beyonce Made in America 2015) AUDIO HD. Название.

Beyoncé - XO (Live from Mrs. Carter Show World Tour) - X10 M4V FULL HD. Marcos Sannin, Apr 18, 2019, in forum: HD Live Performances.

Forums Video Mania HD Live Performances . HDTV Beyoncé X10 The Mrs Carter Show World Tour - XO 1080i HDTV. Discussion in 'HD Live Performances' started by Angel, Aug 31, 2014. Beyoncé - XO (Live from Mrs.

1080p-sc torrent or any other torrent from the Video Music videos.

1080p-sc 12 torrent download locations. Download Direct Beyonce-xo. 1080p-sc Music Video. 1080p-sc Video Music videos. com Beyonce-xo HDTV 1080p-sc Music. You cannot download any of those files from here.

Beyoncé - Partition bw Jealous (1080p-bluray-mvdtx) Video .

Beyoncé - Partition bw Jealous (1080p-bluray-mvdtx) Video: MPEG4 Video 1920x1080(16:9) 2. 76fps 34900Kbps Audio: PCM 48000Hz stereo 6912 kbps. Frank Ocean - Superpower (1080p-bluray-mvdtx) Video: MPEG4 Video 1920x1080(16:9) 2. 76fps 39000Kbps Audio: PCM 48000Hz stereo 6912 kbps. Beyoncé - Blow (1080p-bluray-mvdtx) Video: MPEG4 Video 1920x1080(16:9) 2. 76fps 41500Kbps Audio: PCM 48000Hz stereo 6912 kbps. Beyoncé - XO (1080p-bluray-mvdtx) Video: MPEG4 Video 1920x1080(16:9) 2. 76fps 39900Kbps Audio: PCM 48000Hz stereo 6912 kbps.

Please note that anything you download from here, you do so at your own risk.

DJ Turntable - Xo Xo, 2014 03:30. Karaoke Universe - Xo The Karaoke Legends, 2015 04:05. Lullabye Baby Ensemble - XO Baby Music (New Pop Songs for Infants Toddlers & Very Young Children), 2014 03:31

DJ Turntable - Xo Xo, 2014 03:30. Lullabye Baby Ensemble - XO Baby Music (New Pop Songs for Infants Toddlers & Very Young Children), 2014 03:31. Voice Acting - XO Ultimate Karaoke Bar Pop Songs, 2014 03:35. All Hits Singles - Xo (In the Style of Beyonce) Xo (In the Style of Beyonce) - Single, 2014 03:31. Metro karaoke - Xo (In the Style of Beyonce) Karaoke Songs: 2014, Vol. 2, 2014 03:31. Karaoke 365 - Xo (In the Style of Beyonce) Xo (In the Style of Beyonce) - Single, 2014 03:31.

If the content above is not authorized, please contact us via contactp2bt.

June 15, 2016, 10:14 . Dec. 17, 2018, 2:14 . If the content above is not authorized, please contact us via contactp2bt. Remember to include the full url in your complaint.



Beyonce-xo.HDTV.1080p-sc
Format : MPEG-4
Format profile : Base Media
Codec ID : isom
File size : 112 MiB
Duration : 3mn 23s
Overall bit rate mode : Variable
Overall bit rate : 4 624 Kbps
Writing application : Lavf54.63.104
Video
ID : 1
Format : AVC
Format/Info : Advanced Video Codec
Format profile : [email protected]
Format settings, CABAC : Yes
Format settings, ReFrames : 4 frames
Codec ID : avc1
Codec ID/Info : Advanced Video Coding
Duration : 3mn 23s
Bit rate : 4 419 Kbps
Width : 1 920 pixels
Height : 1 080 pixels
Display aspect ratio : 16:9
Frame rate mode : Variable
Frame rate : 25.000 fps
Minimum frame rate : 8.333 fps
Maximum frame rate : 25.000 fps
Color space : YUV
Chroma subsampling : 4:2:0
Bit depth : 8 bits
Scan type : Progressive
Bits/(Pixel*Frame) : 0.085
Stream size : 109 MiB (97%)
Writing library : x264 core 123 r2189 35cf912
Encoding settings : cabac=1 / ref=3 / deblock=1:0:0 / analyse=0x3:0x133 / me=hex / subme=7 / psy=1 / psy_rd=1.00:0.00 / mixed_ref=1 / me_range=16 / chroma_me=1 / trellis=1 / 8x8dct=1 / cqm=0 / deadzone=21,11 / fast_pskip=1 / chroma_qp_offset=-2 / threads=4 / sliced_threads=0 / nr=0 / decimate=1 / interlaced=0 / bluray_compat=0 / constrained_intra=0 / bframes=3 / b_pyramid=2 / b_adapt=1 / b_bias=0 / direct=1 / weightb=1 / open_gop=0 / weightp=2 / keyint=250 / keyint_min=25 / scenecut=40 / intra_refresh=0 / rc_lookahead=40 / rc=2pass / mbtree=1 / bitrate=4419 / ratetol=1.0 / qcomp=0.60 / qpmin=10 / qpmax=51 / qpstep=4 / cplxblur=20.0 / qblur=0.5 / ip_ratio=1.40 / aq=1:1.00
Audio
ID : 2
Format : AAC
Format/Info : Advanced Audio Codec
Format profile : HE-AAC / LC
Codec ID : 40
Duration : 3mn 23s
Bit rate mode : Variable
Bit rate : 127 Kbps
Maximum bit rate : 128 Kbps
Channel(s) : 2 channels
Channel positions : Front: L R
Sampling rate : 48.0 KHz / 24.0 KHz
Compression mode : Lossy
Stream size : 3.08 MiB (3%)
Language : English

Related music:
David Guetta ft Akon-Sexy Chick HDTV 1080p-shadowCopy download David Guetta ft Akon-Sexy Chick HDTV 1080p-shadowCopy
Video
English
113.7 MB
4.4
/images/5/5/david-guetta-ft-akon-sexy-chick-hdtv-1080p-shadowcopy.jpg
Gorgon City ft Mnek-Ready for your love-HDTV 1080p-shadowCopy download Gorgon City ft Mnek-Ready for your love-HDTV 1080p-shadowCopy
Video
English
110.1 MB
4.2
/images/5/0/gorgon-city-ft-mnek-ready-for-your-love-hdtv-1080p-shadowcopy.jpg
Chris Brown ft Nicki Minaj-Love More -shadowCopy HD.1080p download Chris Brown ft Nicki Minaj-Love More -shadowCopy HD.1080p
Video
English
103.8 MB
4.6
/images/5/7/chris-brown-ft-nicki-minaj-love-more-shadowcopy-hd1080p.jpg
A Great Big World ft Christina Aguilera-Say Something HDTV 1080p-sc download A Great Big World ft Christina Aguilera-Say Something HDTV 1080p-sc
Video
English
113.0 MB
4.0
/images/5/3/a-great-big-world-ft-christina-aguilera-say-something-hdtv-1080p-sc.jpg
Mike Will Made It ft Miley Cyrus Juicy J 23 1080p HDTV-shadowCopy download Mike Will Made It ft Miley Cyrus Juicy J 23 1080p HDTV-shadowCopy
Video
English
143.1 MB
4.8
/images/5/5/mike-will-made-it-ft-miley-cyrus-juicy-j-23-1080p-hdtv-shadowcopy.jpg
Calvin Harris ft Ellie Goulding-I Need Your Love HDTV 480p-shadowCopy download Calvin Harris ft Ellie Goulding-I Need Your Love HDTV 480p-shadowCopy
Video
English
30.5 MB
4.7
/images/5/6/calvin-harris-ft-ellie-goulding-i-need-your-love-hdtv-480p-shadowcopy.jpg
Spiller ft Sopphie Ellis Bextor - Groovejet 1080p HDTV download Spiller ft Sopphie Ellis Bextor - Groovejet 1080p HDTV
Video
English
129.0 MB
4.1
/images/5/7/spiller-ft-sopphie-ellis-bextor-groovejet-1080p-hdtv.jpg