Files 42316
» » J Cole - Work Out 1080p Music Video
Language: English
Size: 153.3 MB
Votes: 381
Downloaded: 80
Category: Video
Format: MP3, FLAC
4.1

File list

  • J. Cole - Work Out [Music Video] 1080p [Sbyky].mp4 (153.3 MB)

Work Out. Исполнитель.

Work Out.

Registered users can opt-out of receiving advertising via the Interface tab on their Settings page

Registered users can opt-out of receiving advertising via the Interface tab on their Settings page. To help support BitChute, place an advert on BitChute or find out more about our creator monetization policy: Help us Grow. Creator Monetization.


General
Complete name : J. Cole - Work Out [Music Video] 1080p [Sbyky].mp4
Format : MPEG-4
Format profile : Base Media / Version 2
Codec ID : mp42
File size : 153 MiB
Duration : 4mn 5s
Overall bit rate mode : Variable
Overall bit rate : 5 236 Kbps
Encoded date : UTC 2013-04-09 21:02:07
Tagged date : UTC 2013-04-09 21:02:07
Video
ID : 1
Format : AVC
Format/Info : Advanced Video Codec
Format profile : [email protected]
Format settings, CABAC : Yes
Format settings, ReFrames : 1 frame
Codec ID : avc1
Codec ID/Info : Advanced Video Coding
Duration : 4mn 5s
Bit rate : 5 042 Kbps
Maximum bit rate : 14.0 Mbps
Width : 1 920 pixels
Height : 1 080 pixels
Display aspect ratio : 16:9
Frame rate mode : Constant
Frame rate : 23.976 fps
Color space : YUV
Chroma subsampling : 4:2:0
Bit depth : 8 bits
Scan type : Progressive
Bits/(Pixel*Frame) : 0.101
Stream size : 148 MiB (96%)
Tagged date : UTC 2013-04-09 21:02:35
Audio
ID : 2
Format : AAC
Format/Info : Advanced Audio Codec
Format profile : LC
Codec ID : 40
Duration : 4mn 5s
Bit rate mode : Variable
Bit rate : 192 Kbps
Maximum bit rate : 202 Kbps
Channel(s) : 2 channels
Channel positions : Front: L R
Sampling rate : 44.1 KHz
Compression mode : Lossy
Stream size : 5.62 MiB (4%)
Title : IsoMedia File Produced by Google, 5-11-2011
Encoded date : UTC 2013-04-09 21:02:26
Tagged date : UTC 2013-04-09 21:02:35
Shared By Sbyky

Related music:
PSY - Gentleman 1080p Music Video download PSY - Gentleman 1080p Music Video
Video
English
145.3 MB
4.7
/images/5/2/psy-gentleman-1080p-music-video-.jpg
J Cole Ft Trey Songz - Can't Get Enough 1080p Clean download J Cole Ft Trey Songz - Can't Get Enough 1080p Clean
Video
English
116.7 MB
4.2
/images/5/5/j-cole-ft-trey-songz-can27t-get-enough-1080p-clean-.jpg
Little Mix - Little Me 1080p Music Video download Little Mix - Little Me 1080p Music Video
Video
English
74.7 MB
4.9
/images/5/1/little-mix-little-me-1080p-music-video-.jpg
INNA - Wow 1080p Music Video download INNA - Wow 1080p Music Video
Video
English
152.3 MB
4.0
/images/noimage.jpg
Wiz Khalifa Ft Akon - Let It Go 1080p Music Video download Wiz Khalifa Ft Akon - Let It Go 1080p Music Video
Video
English
117.5 MB
4.2
/images/5/6/wiz-khalifa-ft-akon-let-it-go-1080p-music-video-.jpg
Stromae - Papaoutai 1080p Music Video download Stromae - Papaoutai 1080p Music Video
Video
French
83.4 MB
4.5
/images/5/3/stromae-papaoutai-1080p-music-video-.jpg
Future - Honest 1080p Music Video download Future - Honest 1080p Music Video
Video
English
100.8 MB
4.3
/images/5/8/future-honest-1080p-music-video-.jpg
Passenger - Let Her Go 1080p Music Video download Passenger - Let Her Go 1080p Music Video
Video
English
86.7 MB
4.2
/images/5/0/passenger-let-her-go-1080p-music-video-.jpg
J Cole - Work Out 720p Music Video download J Cole - Work Out 720p Music Video
Video
English
79.9 MB
4.2
/images/5/9/j-cole-work-out-720p-music-video-.jpg