Files 42316
» » Sherlyn Chopra Ft Ikka - Bad Girl 720p Music Video
Language: English
Size: 55.8 MB
Votes: 881
Downloaded: 33
Category: Video
Format: MP3, FLAC
4.8

File list

  • Sherlyn Chopra Ft. Ikka - Bad Girl [Music Video] 720p [Sbyky].MP4 (55.8 MB)

YouTube Music теперь и на компьютере.

YouTube Music теперь и на компьютере. Альбомы ваших любимых исполнителей, огромный каталог музыки и многое другое.

Home Videos Indian POP And Remix Collection 01 HQ MP4. Home MP3 Songs Mobile Videos Ringtones PC HD Video Games Applications Animations.

Bad Girl by Sherlyn Chopra ft Ikka new Indian song 2016 Badgirl Sherlyn Chopra's Sex Scenes Naughty . video Bad Girl 2014 Official Teaser Ft Sherlyn Chopra 720p HD Teaser NuMVZ.

Bad Girl by Sherlyn Chopra ft Ikka new Indian song 2016 Badgirl Sherlyn Chopra's Sex Scenes Naughty Boy HD Sherlyn Chopra Bad Girl Music Video Sherlyn Chopra Bad Teacher HOT in Swimming Pool Full HD sherlyn chopra viral video Bad Girl 2014 Official Teaser Ft Sherlyn Chopra 720p HD Teaser NuMVZ. com Kamasutra 3D Sherlyn Chopra Official Trailer Kamasutra 3D HOT and BOLD New Trailer 2019 Sherlyn Chopra Bollywood Spotlight Sherlyn Chopra New Sexy Hot Videos Compilat на portall.

to is the largest czech cloud storage. Please, upgrade your browser, OS or both. Prosím, aktualizujte svůj prohlížeč, operační systém nebo obojí.


General
Complete name : Sherlyn Chopra Ft. Ikka - Bad Girl [Music Video] 720p [Sbyky].MP4
Format : MPEG-4
Format profile : Base Media / Version 2
Codec ID : mp42
File size : 55.8 MiB
Duration : 4mn 14s
Overall bit rate mode : Variable
Overall bit rate : 1 841 Kbps
Encoded date : UTC 2014-01-07 03:39:28
Tagged date : UTC 2014-01-07 03:39:28
Video
ID : 1
Format : AVC
Format/Info : Advanced Video Codec
Format profile : [email protected]
Format settings, CABAC : Yes
Format settings, ReFrames : 1 frame
Codec ID : avc1
Codec ID/Info : Advanced Video Coding
Duration : 4mn 14s
Bit rate : 1 646 Kbps
Maximum bit rate : 3 958 Kbps
Width : 1 280 pixels
Height : 720 pixels
Display aspect ratio : 16:9
Frame rate mode : Constant
Frame rate : 24.000 fps
Color space : YUV
Chroma subsampling : 4:2:0
Bit depth : 8 bits
Scan type : Progressive
Bits/(Pixel*Frame) : 0.074
Stream size : 49.9 MiB (89%)
Tagged date : UTC 2014-01-07 03:39:31
Audio
ID : 2
Format : AAC
Format/Info : Advanced Audio Codec
Format profile : LC
Codec ID : 40
Duration : 4mn 14s
Bit rate mode : Variable
Bit rate : 192 Kbps
Maximum bit rate : 201 Kbps
Channel(s) : 2 channels
Channel positions : Front: L R
Sampling rate : 44.1 KHz
Compression mode : Lossy
Stream size : 5.82 MiB (10%)
Title : IsoMedia File Produced by Google, 5-11-2011
Encoded date : UTC 2014-01-07 03:39:30
Tagged date : UTC 2014-01-07 03:39:31
Shared By Sbyky

Related music:
Fall Out Boy - Where Did The Party Go 720p Music Video download Fall Out Boy - Where Did The Party Go 720p Music Video
Video
English
46.7 MB
4.9
/images/5/7/fall-out-boy-where-did-the-party-go-720p-music-video-.jpg
Alexandra Stan - Thanks For Leaving 720p Music Video download Alexandra Stan - Thanks For Leaving 720p Music Video
Video
English
35.9 MB
4.6
/images/5/1/alexandra-stan-thanks-for-leaving-720p-music-video-.jpg
Coldplay - Magic 720p Music Video download Coldplay - Magic 720p Music Video
Video
English
78.4 MB
4.2
/images/5/4/coldplay-magic-720p-music-video-.jpg
Sherlyn Chopra Ft Ikka - Bad Girl 1080p Music Video download Sherlyn Chopra Ft Ikka - Bad Girl 1080p Music Video
Video
English
78.3 MB
4.6
/images/5/5/sherlyn-chopra-ft-ikka-bad-girl-1080p-music-video-.jpg
A$AP Rocky - Angels 720p Music Video download A$AP Rocky - Angels 720p Music Video
Video
English
66.0 MB
4.2
/images/5/2/a24ap-rocky-angels-720p-music-video-.jpg
Priyanka Chopra Ft Pitbull - Exotic 720p Music Video download Priyanka Chopra Ft Pitbull - Exotic 720p Music Video
Video
English
91.5 MB
4.3
/images/5/2/priyanka-chopra-ft-pitbull-exotic-720p-music-video-.jpg
Redlight King - Old Man 720p Music Video download Redlight King - Old Man 720p Music Video
Video
English
38.7 MB
4.4
/images/5/2/redlight-king-old-man-720p-music-video-.jpg
Priyanka Chopra - I Can't Make You Love Me 1080p Music Video download Priyanka Chopra - I Can't Make You Love Me 1080p Music Video
Video
English
112.8 MB
4.0
/images/5/3/priyanka-chopra-i-can27t-make-you-love-me-1080p-music-video-.jpg