Files 42316
» » Emblem3 - Chloe 720p You're The One I Want
Language: English
Size: 85.3 MB
Votes: 735
Downloaded: 13
Category: Video
Format: MP3, FLAC
4.0

File list

  • Emblem3 - Chloe [You're The One I Want] 720p [Sbyky].mp4 (85.3 MB)

Emblem3 - Chloe (You're The One I Want).

Emblem3 - Chloe (You're The One I Want).

Chloe (You're the One I Want)" is the debut single of American pop rock trio Emblem3 from their debut studio album, Nothing to Lose, which was released July 30, 2013. It was their first single after placing fourth on the second season of The X Factor and after signing on Simon Cowell's Syco. It was released digitally on April 15, 2013, through Syco and Columbia Records.

P-line: â„— 2013 (P) 2013 Simco Limited under exclusive license to Columbia Records, a Division of Sony Music Entertainment. Seems a little quiet over here.

Album: Nothing To Lose. Emblem3: best 2 tracks. Emblem3 - XO Nothing To Lose, 2013 03:47. Download Emblem3 - Chloe (You're The One I Want). Emblem3 - Reason Songs from the Couch, Vol. 1, 2014 03:18.

Emblem3 - Chloe (You're The One I Want) HD. Sophia Li. 3:59. Emblem3 - Chloe w/ lyrics. Emblem3 - Chloe (You're The One I Want).


General
Complete name : Emblem3 - Chloe [You're The One I Want] 720p [Sbyky].mp4
Format : MPEG-4
Format profile : Base Media / Version 2
Codec ID : mp42
File size : 85.3 MiB
Duration : 3mn 54s
Overall bit rate mode : Variable
Overall bit rate : 3 055 Kbps
Encoded date : UTC 2013-05-23 08:05:10
Tagged date : UTC 2013-05-23 08:05:10
Video
ID : 1
Format : AVC
Format/Info : Advanced Video Codec
Format profile : [email protected]
Format settings, CABAC : Yes
Format settings, ReFrames : 1 frame
Codec ID : avc1
Codec ID/Info : Advanced Video Coding
Duration : 3mn 54s
Bit rate : 2 861 Kbps
Maximum bit rate : 5 422 Kbps
Width : 1 280 pixels
Height : 720 pixels
Display aspect ratio : 16:9
Frame rate mode : Constant
Frame rate : 23.976 fps
Color space : YUV
Chroma subsampling : 4:2:0
Bit depth : 8 bits
Scan type : Progressive
Bits/(Pixel*Frame) : 0.129
Stream size : 79.9 MiB (94%)
Tagged date : UTC 2013-05-23 08:05:17
Audio
ID : 2
Format : AAC
Format/Info : Advanced Audio Codec
Format profile : LC
Codec ID : 40
Duration : 3mn 54s
Bit rate mode : Variable
Bit rate : 192 Kbps
Maximum bit rate : 202 Kbps
Channel(s) : 2 channels
Channel positions : Front: L R
Sampling rate : 44.1 KHz
Compression mode : Lossy
Stream size : 5.36 MiB (6%)
Title : IsoMedia File Produced by Google, 5-11-2011
Encoded date : UTC 2013-05-23 08:05:15
Tagged date : UTC 2013-05-23 08:05:17
Shared By Sbyky

Related music:
Emblem3 - 3000 Miles 1080p Music Video download Emblem3 - 3000 Miles 1080p Music Video
Video
English
86.2 MB
4.6
/images/5/4/emblem3-3000-miles-1080p-music-video-.jpg
Cher Lloyd Ft T I - I Wish 720p Music Video download Cher Lloyd Ft T I - I Wish 720p Music Video
Video
English
60.6 MB
4.3
/images/5/1/cher-lloyd-ft-t-i-i-wish-720p-music-video-.jpg
John Legend - All Of Me 720p Music Video download John Legend - All Of Me 720p Music Video
Video
English
62.7 MB
4.1
/images/5/4/john-legend-all-of-me-720p-music-video-.jpg
Taylor Swift - We Are Never Ever Getting Back Together 720p Music Video download Taylor Swift - We Are Never Ever Getting Back Together 720p Music Video
Video
English
61.4 MB
4.0
/images/5/0/taylor-swift-we-are-never-ever-getting-back-together-720p-music-video-.jpg
Stromae - Papaoutai 720p Music Video download Stromae - Papaoutai 720p Music Video
Video
French
41.8 MB
4.6
/images/5/0/stromae-papaoutai-720p-music-video-.jpg
Ke$ha - Dirty Love 720p Music Video download Ke$ha - Dirty Love 720p Music Video
Video
English
77.0 MB
4.1
/images/5/7/ke24ha-dirty-love-720p-music-video-.jpg
J Cole - Work Out 720p Music Video download J Cole - Work Out 720p Music Video
Video
English
79.9 MB
4.2
/images/5/9/j-cole-work-out-720p-music-video-.jpg
Little Mix - Little Me 720p Music Video download Little Mix - Little Me 720p Music Video
Video
English
37.9 MB
4.1
/images/5/5/little-mix-little-me-720p-music-video-.jpg