Files 42316
» » DeJ Loaf - Back Up ft Big Sean 1080p mp4
Language: English
Size: 119.0 MB
Votes: 734
Downloaded: 47
Category: Video
Format: MP3, FLAC
4.3

File list

  • DeJ Loaf - Back Up ft. Big Sean [P-DawG].mp4 (119.0 MB)

DeJ Loaf - Back Up (feat.

DeJ Loaf - Back Up (feat. Download MP3. MP3 320Kbps, . Mb MP3 64Kbps, 94. 1 Kb. DeJ Loaf. 1 2 3 4 5. Related songs. On My Way. Alan Walker, Sabrina Carpenter, Farruko.

Big Sean скачать в mp3 на телефон или слушайте песню Dej Loaf - Back Up, V 100 Chart Tributes - Back Up (Tribute to DeJ Loaf and Big Sean) и другие . DeJ Loaf Feat Big Sean –Back Up (remix by zye).

Big Sean скачать в mp3 на телефон или слушайте песню Dej Loaf - Back Up, V 100 Chart Tributes - Back Up (Tribute to DeJ Loaf and Big Sean) и другие популярные треки и рингтоны. Eminem & Royce Da 5 9 & Big Sean & Dej Loaf & Trick Trick –Detroit Vs. Everybody. Eminem –Detroit Vs. Everybody Feat.

DeJ Loaf - Back Up ft. Big Sean. Fat Joe, Remy Ma - All The Way Up ft. French Montana, Infared.

DeJ Loaf - Back Up ft. Southern Fresh Новинки американского рэпа.

Big Sean ← download like song i. P3 format ← download video converted i. P4 format ← download video converted i. VI format ← download video WITHOUT conversion.

What should do now ? 1. Choose the format that you want to Convert. 2. Press the "Convert" button. 3. Wait the system, to process your request. 4. Press "Download" button. download like song i.

[P-DawG]

Cover:-

Screens:-
https://extraimage.net/image/bzN
General Info:-
General
Complete name : DeJ Loaf - Back Up ft. Big Sean [P-DawG].mp4
Format : MPEG-4
Format profile : Base Media
Codec ID : isom
File size : 119 MiB
Duration : 4mn 2s
Overall bit rate : 4 117 Kbps
Movie name : Back Up [P-DawG]
Album : #AndSeeThatsTheThing - EP
Track name/Position : 2
Performer : DeJ Loaf ft. Big Sean
Genre : Hip Hop/Rap
Recorded date : 2015
Cover : Yes
Video
ID : 1
Format : AVC
Format/Info : Advanced Video Codec
Format profile : [email protected]
Format settings, CABAC : Yes
Format settings, ReFrames : 2 frames
Codec ID : avc1
Codec ID/Info : Advanced Video Coding
Duration : 4mn 2s
Bit rate mode : Variable
Bit rate : 3 986 Kbps
Width : 1 920 pixels
Height : 1 080 pixels
Display aspect ratio : 16:9
Stream size : 115 MiB (97%)
Audio
ID : 2
Format : AAC
Format/Info : Advanced Audio Codec
Format profile : LC
Codec ID : 40
Duration : 4mn 2s
Bit rate mode : Constant
Bit rate : 126 Kbps
Channel(s) : 2 channels
Channel positions : Front: L R
Sampling rate : 44.1 KHz
Compression mode : Lossy
Stream size : 3.63 MiB (3%)

Related music:
Tyga - Ice Cream Man 1080p mp4 download Tyga - Ice Cream Man 1080p mp4
Video
English
105.5 MB
4.4
/images/5/5/tyga-ice-cream-man-1080p-mp4.jpg
Coldplay - Adventure Of A Lifetime 1080p mp4 download Coldplay - Adventure Of A Lifetime 1080p mp4
Video
English
153.1 MB
4.2
/images/5/1/coldplay-adventure-of-a-lifetime-1080p-mp4.jpg
Sean Kingston - One A Way 1080p mp4 download Sean Kingston - One A Way 1080p mp4
Video
English
97.6 MB
4.6
/images/5/9/sean-kingston-one-a-way-1080p-mp4.jpg
Adele - Hello 1080p mp4 download Adele - Hello 1080p mp4
Video
English
103.8 MB
4.7
/images/5/9/adele-hello-1080p-mp4.jpg
Beyoncé - Sorry 1080p mp4 download Beyoncé - Sorry 1080p mp4
Video
English
72.9 MB
4.4
/images/5/8/beyoncc3a9-sorry-1080p-mp4.jpg
ZAYN - LIKE I WOULD 1080p mp4 download ZAYN - LIKE I WOULD 1080p mp4
Video
English
102.9 MB
4.5
/images/5/4/zayn-like-i-would-1080p-mp4.jpg
Taylor Swift - Out Of The Woods 1080p mp4 download Taylor Swift - Out Of The Woods 1080p mp4
Video
English
86.8 MB
4.3
/images/5/6/taylor-swift-out-of-the-woods-1080p-mp4.jpg
Ariana Grande - Into You 1080p mp4 download Ariana Grande - Into You 1080p mp4
Video
English
70.9 MB
4.2
/images/5/1/ariana-grande-into-you-1080p-mp4-.jpg
Justin Bieber - Sorry 1080p mp4 download Justin Bieber - Sorry 1080p mp4
Video
English
92.1 MB
4.6
/images/5/5/justin-bieber-sorry-1080p-mp4.jpg