Files 42316
» » Rick Ross Ft Lil Wayne - Thug Cry 1080p
Language: English
Size: 74.3 MB
Votes: 743
Downloaded: 11
Category: Video
Format: MP3, FLAC
4.2

File list

  • Rick Ross Ft. Lil Wayne - Thug Cry [Explicit] 1080p [Sbyky].MP4 (74.3 MB)

Bill cobham - heather/thug cry. Buddy roe. Загрузка. Thug Cry. Исполнитель.

Bill cobham - heather/thug cry. 50+ видео Воспроизвести все Микс – RICK ROSS & LIL WAYNE FT. BILL COBHAM - HEATHER/THUG CRYYouTube. Billy Cobham - Heather - Продолжительность: 9:35 adr01t Recommended for you. 9:35.

Lil Wayne - Thug Cry. Rick Ross feat.

Lil Wayne - Thug Cry. Download MP3. MP3 320Kbps, . 4 Mb MP3 128Kbps, . 3 Mb MP3 64Kbps, . 6 Mb.

Lil Wayne, Migos, Ace Hood, Big Sean, Gucci Mane, 2 Chainz, Fabolous, French Montana, Kendrick Lamar, Meek Mill, Yo Gotti, Game, Trey Songz, Ludacris, Tyga, Chris Brown, Wale, Rick Ross, . Rocko, Young Thug, Chief Keef, Future, Drake, J. Cole, kevi. Прослушать Скачать 02:47. Amerie, Gravy, Nas, LL Cool J, Fabolous, Lil Wayne, Ludacris, Joe Scudda, Bow Wow, Slim Thug, Rick Ross, Jadakiss, Chingy, Royce. Amerie - When Loving U Was Easy. Прослушать Скачать 03:32

Lil' Wayne) - или слушать онлайн Rick Ross - Thug Cry (f. Maybach Music 2 (ft T-Pain, Lil' Wayne & Kanye West). By Any Means (Ft. Wale, Meek Mill, Pill).

Lil' Wayne) - или слушать онлайн Rick Ross - Thug Cry (ft. Lil' Wayne) бесплатно.


General
Complete name : Rick Ross Ft. Lil Wayne - Thug Cry [Explicit] 1080p [Sbyky].MP4
Format : MPEG-4
Format profile : Base Media
Codec ID : isom
File size : 74.3 MiB
Duration : 5mn 33s
Overall bit rate mode : Variable
Overall bit rate : 1 870 Kbps
Encoded date : UTC 2014-05-10 00:28:38
Tagged date : UTC 2014-05-10 00:28:38
Video
ID : 1
Format : AVC
Format/Info : Advanced Video Codec
Format profile : [email protected]
Format settings, CABAC : Yes
Format settings, ReFrames : 3 frames
Codec ID : avc1
Codec ID/Info : Advanced Video Coding
Duration : 5mn 33s
Bit rate : 1 740 Kbps
Width : 1 920 pixels
Height : 1 080 pixels
Display aspect ratio : 16:9
Frame rate mode : Variable
Frame rate : 23.976 fps
Minimum frame rate : 23.974 fps
Maximum frame rate : 1 500.000 fps
Color space : YUV
Chroma subsampling : 4:2:0
Bit depth : 8 bits
Scan type : Progressive
Bits/(Pixel*Frame) : 0.035
Stream size : 69.1 MiB (93%)
Encoded date : UTC 2014-05-10 00:28:38
Tagged date : UTC 2014-05-10 00:28:38
Audio
ID : 2
Format : AAC
Format/Info : Advanced Audio Codec
Format profile : LC
Codec ID : 40
Duration : 5mn 33s
Bit rate mode : Variable
Bit rate : 126 Kbps
Channel(s) : 2 channels
Channel positions : Front: L R
Sampling rate : 44.1 KHz
Compression mode : Lossy
Stream size : 4.99 MiB (7%)
Encoded date : UTC 2014-05-10 00:28:15
Tagged date : UTC 2014-05-10 00:28:15
Shared By Sbyky

Related music:
Chris Brown Ft Lil Wayne & Tyga - Loyal 1080p download Chris Brown Ft Lil Wayne & Tyga - Loyal 1080p
Video
English
137.0 MB
4.2
/images/5/3/chris-brown-ft-lil-wayne-26-tyga-loyal-1080p-.jpg
Sevyn Streeter Ft Kid Ink - nEXt 1080p Music Video download Sevyn Streeter Ft Kid Ink - nEXt 1080p Music Video
Video
English
93.7 MB
4.4
/images/5/4/sevyn-streeter-ft-kid-ink-next-1080p-music-video-.jpg
Ashanti Ft Rick Ross - I Got It 1080p Music Video download Ashanti Ft Rick Ross - I Got It 1080p Music Video
Video
English
75.1 MB
4.1
/images/5/6/ashanti-ft-rick-ross-i-got-it-1080p-music-video-.jpg
Rick Ross Ft Young Jeezy - War Ready 1080p download Rick Ross Ft Young Jeezy - War Ready 1080p
Video
English
116.8 MB
4.7
/images/5/7/rick-ross-ft-young-jeezy-war-ready-1080p-.jpg
Katy Perry - Birthday 1080p Music Video download Katy Perry - Birthday 1080p Music Video
Video
English
214.8 MB
4.2
/images/5/2/katy-perry-birthday-1080p-music-video-.jpg
Shakira - Empire 1080p Music Video download Shakira - Empire 1080p Music Video
Video
English
94.2 MB
4.1
/images/5/0/shakira-empire-1080p-music-video-.jpg
50 Cent Ft Joe - Big Rich Town 1080p Music Video download 50 Cent Ft Joe - Big Rich Town 1080p Music Video
Video
English
72.7 MB
4.3
/images/5/7/50-cent-ft-joe-big-rich-town-1080p-music-video-.jpg
Tyga Ft Young Thug - Hookah 1080p Music Video download Tyga Ft Young Thug - Hookah 1080p Music Video
Video
English
104.1 MB
4.4
/images/5/5/tyga-ft-young-thug-hookah-1080p-music-video-.jpg