Files 42316
» » Emily Kinney - Kids 1080p Music Video
Language: English
Size: 77.7 MB
Votes: 248
Downloaded: 32
Category: Video
Format: MP3, FLAC
4.5

File list

  • Emily Kinney - Kids [Music Video] 1080p [Sbyky].mp4 (77.7 MB)

Emily Kinney is an actor and songwriter best known for her role as Beth Greene on AMC's hit television series The Walking.

Emily Kinney is an actor and songwriter best known for her role as Beth Greene on AMC's hit television series The Walking.

actor and songwriter, Staci in ‘Messiah’ on Netflix 1/2 of The . .Подписчиков: 947 тыс.

actor and songwriter, Staci in ‘Messiah’ on Netflix 1/2 of The Sweetheart Deal, Beth on The Walking DeadПодписчиков: 947 тыс.

Kids" by Emily Kinney - Expired Love (2013). Music management: GPS Global Positioning Services Jerimaya Grabher, JW Johnson, Andrew DiDio and Colin Ramsay.

Music video for "Kids" off Expired Love. Production Assistants: Aaron Schorch and Jessica Hershatter. Special thanks to the kids: Russell Schuller, Sophia and Giada Silirie. ww. avidfeldmanmedia.

Video Format : AVC Nominal bit rate : 1 800 Kbps Width : 1 920 . To Anything You Can Provide DVDScr, R5, DVDR, BluRay, Direct Audio, Music Releases and Seedboxes. Emily Kinney - Kids 1080p x264 - BFAB. mkv (4. MB). Thumbnails.

Video Format : AVC Nominal bit rate : 1 800 Kbps Width : 1 920 pixels Height : 1 080 pixels Display aspect ratio : 16:9 Frame rate : 2. 76 fps Bit depth : 8 bits. We require dedicated servers, so as to do more and fast releases of movies.

Listen to music from Emily Kinney like The Turtle and the Monkey, The Parting Glass - The Walking Dead Soundtrack . In 2011, Emily Kinney joined the cast of AMC's 'The Walking Dead', as the recurring character Beth Greene. In 2013, she was promoted to main cast.

Listen to music from Emily Kinney like The Turtle and the Monkey, The Parting Glass - The Walking Dead Soundtrack & more. Find the latest tracks, albums, and images from Emily Kinney. Emily Kinney (born August 15, 1985 in Nebraska, United States) is an American singer and actress. Emily began her acting career in 2007.

Details for this torrent. Emily Kinney - Kids 1080p General Complete name : Emily Kinney - Kids 1080p. Emily Kinney - Kids 1080p. Type: Video Music videos. General Complete name : Emily Kinney - Kids 1080p.


General
Complete name : Emily Kinney - Kids [Music Video] 1080p [Sbyky].mp4
Format : MPEG-4
Format profile : Base Media
Codec ID : isom
File size : 77.7 MiB
Duration : 3mn 11s
Overall bit rate mode : Variable
Overall bit rate : 3 401 Kbps
Encoded date : UTC 2013-11-25 05:08:03
Tagged date : UTC 2013-11-25 05:08:03
Video
ID : 1
Format : AVC
Format/Info : Advanced Video Codec
Format profile : [email protected]
Format settings, CABAC : Yes
Format settings, ReFrames : 3 frames
Codec ID : avc1
Codec ID/Info : Advanced Video Coding
Duration : 3mn 11s
Duration_LastFrame : -41ms
Bit rate : 3 273 Kbps
Width : 1 920 pixels
Height : 1 080 pixels
Display aspect ratio : 16:9
Frame rate mode : Constant
Frame rate : 23.976 fps
Color space : YUV
Chroma subsampling : 4:2:0
Bit depth : 8 bits
Scan type : Progressive
Bits/(Pixel*Frame) : 0.066
Stream size : 74.7 MiB (96%)
Encoded date : UTC 2013-11-25 05:08:03
Tagged date : UTC 2013-11-25 05:08:03
Audio
ID : 2
Format : AAC
Format/Info : Advanced Audio Codec
Format profile : LC
Codec ID : 40
Duration : 3mn 11s
Bit rate mode : Variable
Bit rate : 126 Kbps
Channel(s) : 2 channels
Channel positions : Front: L R
Sampling rate : 44.1 KHz
Compression mode : Lossy
Delay relative to video : 42ms
Stream size : 2.87 MiB (4%)
Encoded date : UTC 2013-11-25 05:07:10
Tagged date : UTC 2013-11-25 05:07:10
Shared By Sbyky

Related music:
Emily Kinney - Kids 720p Music Video download Emily Kinney - Kids 720p Music Video
Video
English
60.5 MB
4.2
/images/5/3/emily-kinney-kids-720p-music-video-.jpg
Eminem - Rap God 1080p download Eminem - Rap God 1080p
Video
English
146.1 MB
4.9
/images/5/3/eminem-rap-god-1080p-.jpg
Little Mix - Little Me 1080p Music Video download Little Mix - Little Me 1080p Music Video
Video
English
74.7 MB
4.9
/images/5/1/little-mix-little-me-1080p-music-video-.jpg
Britney Spears - Ooh La La 1080p Music Video download Britney Spears - Ooh La La 1080p Music Video
Video
English
119.6 MB
4.7
/images/5/9/britney-spears-ooh-la-la-1080p-music-video-.jpg
Pitbull - I Know You Want Me 1080p Music Video download Pitbull - I Know You Want Me 1080p Music Video
Video
English
96.3 MB
4.3
/images/5/9/pitbull-i-know-you-want-me-1080p-music-video-.jpg
Fall Out Boy - The Phoenix 1080p Music Video download Fall Out Boy - The Phoenix 1080p Music Video
Video
English
77.6 MB
4.9
/images/5/8/fall-out-boy-the-phoenix-1080p-music-video-.jpg
Passenger - Let Her Go 1080p Music Video download Passenger - Let Her Go 1080p Music Video
Video
English
86.7 MB
4.2
/images/5/0/passenger-let-her-go-1080p-music-video-.jpg
The Killers - Shot At The Night 1080p Music Video download The Killers - Shot At The Night 1080p Music Video
Video
English
66.0 MB
4.4
/images/5/2/the-killers-shot-at-the-night-1080p-music-video-.jpg