Files 42316
» » SlaughterHouse - Goodbye 720p kely258
Language: English
Size: 50.9 MB
Votes: 885
Downloaded: 40
Category: Video
Format: MP3, FLAC
4.3

File list

  • Slaughterhouse - Goodbye (HD 720P)[kely258].mp4 (50.9 MB)
  • kely258.txt (0.2 KB)
  • Torrent Downloaded From ExtraTorrent.com.txt (0.0 KB)
  • Torrent Downloaded From .org.txt (0.0 KB)
  • Torrent Downloaded From Kat.ph.txt (0.0 KB)
  • Torrent Downloaded From Ahashare.com.txt (0.0 KB)
  • Torrent Downloaded From Digtorrent.org.txt (0.0 KB)
  • Torrent Downloaded From Silvertorrent.org.txt (0.0 KB)

Album welcome to: OUR HOUSE.

Album welcome to: OUR HOUSE.

Video ID : 1 Format : AVC Format/Info : Advanced Video Codec Format profile : Format settings, CABAC : Yes Format settings, ReFrames : 1 frame Codec ID : avc1 Codec ID/Info : Advanced Video Coding Duration : 5mn 5s Bit rate : 1 203 Kbps Maximum bit rate : 2 838 Kbps Width : 1 280 pixels Height : 720 pixels Display aspect ratio : 16:9 Frame rate. Slaughterhouse - Goodbye (HD 720P). mp4 (5. MB). kely258. txt (. KB). Torrent Downloaded From ExtraTorrent. Torrent Downloaded From 1337x.

Slaughterhouse - Goodbye. Music video by Slaughterhouse performing Goodbye. C) 2012 Shady Records/Interscope Records. Body . More information about text formats.

Goodbye" is the fourth single of the hip hop group Slaughterhouse from their album Welcome to: Our House, which was released on August 28, 2012. The song features Ming-Xia formally of The Spooks. The song features production by Boi-1da. There is a remix featuring Fat Joe, dedicated to Chris Lighty. A music video for the song was released on November 9, 2012 under VEVO on YouTube. Artist: Slaughterhouse. Album: Welcome to: Our House, 2012.

1 Aw Naw 2 Hold You To It 3 Lonely Eyes 4 Goodbye 5 .

mp3 (. 06 Nothin' But the Cooler Left. 1 Aw Naw 2 Hold You To It 3 Lonely Eyes 4 Goodbye 5 . 99r Encoding settings : -m j -V 4 -q 3 -lowpass.


General
Complete name : E:SlaughterHouse - Goodbye 720p [kely258]Slaughterhouse - Goodbye (HD 720P)[kely258].mp4
Format : MPEG-4
Format profile : Base Media / Version 2
Codec ID : mp42
File size : 50.9 MiB
Duration : 5mn 5s
Overall bit rate mode : Variable
Overall bit rate : 1 397 Kbps
Encoded date : UTC 2012-11-06 00:16:02
Tagged date : UTC 2012-11-06 00:16:02
gsst : 0
gstd : 305388
gssd : BADC23782HH1361037535097949
gshh : r8---sn-vgqelnek.c.youtube.com
Video
ID : 1
Format : AVC
Format/Info : Advanced Video Codec
Format profile : [email protected]
Format settings, CABAC : Yes
Format settings, ReFrames : 1 frame
Codec ID : avc1
Codec ID/Info : Advanced Video Coding
Duration : 5mn 5s
Bit rate : 1 203 Kbps
Maximum bit rate : 2 838 Kbps
Width : 1 280 pixels
Height : 720 pixels
Display aspect ratio : 16:9
Frame rate mode : Constant
Frame rate : 30.000 fps
Color space : YUV
Chroma subsampling : 4:2:0
Bit depth : 8 bits
Scan type : Progressive
Bits/(Pixel*Frame) : 0.044
Stream size : 43.8 MiB (86%)
Tagged date : UTC 2012-11-06 00:16:02
Audio
ID : 2
Format : AAC
Format/Info : Advanced Audio Codec
Format profile : LC
Codec ID : 40
Duration : 5mn 5s
Bit rate mode : Variable
Bit rate : 192 Kbps
Maximum bit rate : 202 Kbps
Channel(s) : 2 channels
Channel positions : Front: L R
Sampling rate : 44.1 KHz
Compression mode : Lossy
Stream size : 6.99 MiB (14%)
Title : IsoMedia File Produced by Google, 5-11-2011
Encoded date : UTC 2012-11-06 00:16:02
Tagged date : UTC 2012-11-06 00:16:02

Related music:
Miguel - Adorn 720p Music Video download Miguel - Adorn 720p Music Video
Video
English
77.1 MB
4.5
/images/5/3/miguel-adorn-720p-music-video-.jpg
Becky G ft Will i am - Problem 720p The Monster Remix download Becky G ft Will i am - Problem 720p The Monster Remix
Video
English
64.2 MB
4.5
/images/5/4/becky-g-ft-will-i-am-problem-720p-the-monster-remix.jpg
2 Chainz Ft Drake - No Lie 720p download 2 Chainz Ft Drake - No Lie 720p
Video
English
56.5 MB
4.1
/images/5/8/2-chainz-ft-drake-no-lie-720p-.jpg
Lady Antebellum - Goodbye Town 720p Music Video download Lady Antebellum - Goodbye Town 720p Music Video
Video
English
78.2 MB
4.3
/images/5/5/lady-antebellum-goodbye-town-720p-music-video-.jpg
Rihanna - Where Have You Been 720p Music Video download Rihanna - Where Have You Been 720p Music Video
Video
English
71.7 MB
4.8
/images/5/3/rihanna-where-have-you-been-720p-music-video-.jpg
Taylor Swift - I Knew You Were Trouble 720p Music Video download Taylor Swift - I Knew You Were Trouble 720p Music Video
Video
English
52.1 MB
4.3
/images/5/1/taylor-swift-i-knew-you-were-trouble-720p-music-video-.jpg
P!nk - Try 720p Music Video download P!nk - Try 720p Music Video
Video
English
54.4 MB
4.9
/images/5/7/p21nk-try-720p-music-video-.jpg
Ik Tu Hi Tu Hi - Mausam 720P HD Video Song 2011 download Ik Tu Hi Tu Hi - Mausam 720P HD Video Song 2011
Video
Hindi
86.3 MB
4.4
/images/5/7/ik-tu-hi-tu-hi-mausam-720p-hd-video-song-2011.jpg
Nicki Minaj - Va Va Voom 720p download Nicki Minaj - Va Va Voom 720p
Video
English
50.5 MB
4.9
/images/5/8/nicki-minaj-va-va-voom-720p-.jpg