Files 42316
» » Sean Kingston Ft Chris Brown & Wiz Khalifa - Beat It 1080p Music Video
Language: English
Size: 121.2 MB
Votes: 078
Downloaded: 40
Category: Video
Format: MP3, FLAC
4.7

File list

  • Sean Kingston Ft. Chris Brown & Wiz Khalifa - Beat It [Music Video] 1080p [Sbyky].mp4 (121.2 MB)

Sean Kingston ft. Chris Brown & Wiz Khalifa – Beat It . Wiz Khalifa, Curren, Big Sean, DJ Khaled, Young Jeezy, Ludacris, . Bogus Boys, Neako, Chris Brown, Gucci Mane, Nelly, Mac M – Flowers. Gravity Falls – Theme Song.

Sean Kingston ft. Chris Brown & Wiz Khalifa – Beat It (Prod. By Nic Nac) (Dirty NoShout). Разные исполнители – Till I Die (clean) (Tribute versio. :35. Gravity Falls Remix feat Chris Brown, Big Sean & Wiz Khalifa – Till i die. 3:13. Drimmy – Необычайная.

Download MP3. Sean Kingston.

Chris Brown & Wiz Khalifa). Jonas Brothers Sucker. The Buggles Video Killed the Radio Star. Artist: Sean Kingston. Album: Back 2 Life, 2013. Bryan Adams Summer Of '69. Mercury Radio. Blondie Call Me. Радио Карл. Luis Fonsi Despacito (feat. Радио Рекорд - 1980-е. ABBA The Winner Takes It All. Gimadut Radio. Charlie Puth How Long.


General
Complete name : Sean Kingston Ft. Chris Brown & Wiz Khalifa - Beat It [Music Video] 1080p [Sbyky].mp4
Format : MPEG-4
Format profile : Base Media / Version 2
Codec ID : mp42
File size : 121 MiB
Duration : 4mn 15s
Overall bit rate mode : Variable
Overall bit rate : 3 976 Kbps
Encoded date : UTC 2013-05-01 03:48:24
Tagged date : UTC 2013-05-01 03:48:24
Video
ID : 1
Format : AVC
Format/Info : Advanced Video Codec
Format profile : [email protected]
Format settings, CABAC : Yes
Format settings, ReFrames : 1 frame
Codec ID : avc1
Codec ID/Info : Advanced Video Coding
Duration : 4mn 15s
Bit rate : 3 782 Kbps
Maximum bit rate : 6 066 Kbps
Width : 1 920 pixels
Height : 1 080 pixels
Display aspect ratio : 16:9
Frame rate mode : Constant
Frame rate : 23.976 fps
Color space : YUV
Chroma subsampling : 4:2:0
Bit depth : 8 bits
Scan type : Progressive
Bits/(Pixel*Frame) : 0.076
Stream size : 115 MiB (95%)
Tagged date : UTC 2013-05-01 03:48:45
Audio
ID : 2
Format : AAC
Format/Info : Advanced Audio Codec
Format profile : LC
Codec ID : 40
Duration : 4mn 15s
Bit rate mode : Variable
Bit rate : 192 Kbps
Maximum bit rate : 203 Kbps
Channel(s) : 2 channels
Channel positions : Front: L R
Sampling rate : 44.1 KHz
Compression mode : Lossy
Stream size : 5.85 MiB (5%)
Title : IsoMedia File Produced by Google, 5-11-2011
Encoded date : UTC 2013-05-01 03:48:39
Tagged date : UTC 2013-05-01 03:48:45
Shared By Sbyky

Related music:
Juicy J Ft Chris Brown & Wiz Khalifa - Talkin' Bout 1080p Music Video download Juicy J Ft Chris Brown & Wiz Khalifa - Talkin' Bout 1080p Music Video
Video
English
121.3 MB
4.2
/images/5/9/juicy-j-ft-chris-brown-26-wiz-khalifa-talkin27-bout-1080p-music-video-.jpg
Little Mix - Little Me 1080p Music Video download Little Mix - Little Me 1080p Music Video
Video
English
74.7 MB
4.9
/images/5/1/little-mix-little-me-1080p-music-video-.jpg
Wiz Khalifa - Paperbond 1080p Music Video download Wiz Khalifa - Paperbond 1080p Music Video
Video
English
91.9 MB
4.2
/images/5/6/wiz-khalifa-paperbond-1080p-music-video-.jpg
Kelly Rowland Ft Big Sean - Lay It On Me 1080p Music Video download Kelly Rowland Ft Big Sean - Lay It On Me 1080p Music Video
Video
English
97.5 MB
4.4
/images/5/4/kelly-rowland-ft-big-sean-lay-it-on-me-1080p-music-video-.jpg
INNA - Wow 1080p Music Video download INNA - Wow 1080p Music Video
Video
English
152.3 MB
4.0
/images/noimage.jpg
Wiz Khalifa Ft Akon - Let It Go 1080p Music Video download Wiz Khalifa Ft Akon - Let It Go 1080p Music Video
Video
English
117.5 MB
4.2
/images/5/6/wiz-khalifa-ft-akon-let-it-go-1080p-music-video-.jpg
Stromae - Papaoutai 1080p Music Video download Stromae - Papaoutai 1080p Music Video
Video
French
83.4 MB
4.5
/images/5/3/stromae-papaoutai-1080p-music-video-.jpg
Chris Brown - Don't Wake Me Up 1080p Music Video download Chris Brown - Don't Wake Me Up 1080p Music Video
Video
English
77.3 MB
4.5
/images/5/0/chris-brown-don27t-wake-me-up-1080p-music-video-.jpg
Naughty Boy Ft Wiz Khalifa & Ella Eyre - Think About It 1080p Music Video download Naughty Boy Ft Wiz Khalifa & Ella Eyre - Think About It 1080p Music Video
Video
English
51.4 MB
4.0
/images/5/3/naughty-boy-ft-wiz-khalifa-26-ella-eyre-think-about-it-1080p-music-video-.jpg