Files 42316
» » Bharat Mata Ki Jai - Shanghai - Gampu
Language: Hindi
Size: 35.2 MB
Votes: 685
Downloaded: 115
Category: Video
Format: MP3, FLAC
4.0

File list

  • Bharat Mata Ki Jai - Shangha -Gampu.MP4 (35.2 MB)

Bharat Mata Ki Jai. Non-profit organisation.

Bharat Mata Ki Jai.

Bharat Mata Ki Jai" Song Info. Keerthi Sagathia, Vishal Dadlani.

Artist: Emraan Hashmi, Song: Bharat Mata Ki Jai (Shanghai), Duration: 4:06, File type: mp3. №3419969288. Emraan Hashmi Bharat Mata Ki Jai (Shanghai). Duration: 4:06 File type: mp3.

Artist: Vishal Dadlani. Album: Shanghai (Original Motion Picture Soundtrack), 2012.

Movie: Shanghai Music: Vishal-Shekhar Lyrics: Dibakar Banerjee Singers: Keerthi Sagathia, Arun Ingle, Vishal Dadlani, RN Iyer, Chintamani Sohoni, Mandar Apte, Dibakar, Bhupesh. Bharat Maata ki Jai from Shanghai is a song with a satirical flavor. The song, which in the mukhda (title) hails Mother India, talks about the dogmatism and open corruption of those in power. A translation is here. Hey tak dhina dhin Maar lapad phaad chhapad, chhaat pyaare Na sune baat koi, haath hai aur laat pyaare.

Lyrics of Bharat Mata Ki Jai Hindi Song from Shanghai (2012) . Thak dhina dhin Hum hove sarkari Hathiyaar pyaare Bhi kariya baaz aitraaz Gaya bhaad pyaare Arey phir na kehna Arey peechhe hi rehna Kasam ye khayi hai Shehar shanghai hai Jo humne kahi rule wahi Dhin tanana naa.

Lyrics of Bharat Mata Ki Jai Hindi Song from Shanghai (2012), Bharat Mata Ki Jai Lyrics Latest Hindi Songs Lyrics. Bharat mata ki bharat mata ki Tum jai bolo jai bharat mata ki jai Bharat mata ki bharat mata ki Tum jai bolo jai bharat mata ki jai Sone ki chidiya dengue malaria Gurr bhi hai gobar Bhi bharat mata ki jai.

Flashback Friday: Alia Bhatt & Varun Dhawan's dance on Badrinath Ki Dulhania's Humsafar will melt your heart

Flashback Friday: Alia Bhatt & Varun Dhawan's dance on Badrinath Ki Dulhania's Humsafar will melt your heart. EXCLUSIVE: Emraan Hashmi to play the male lead opposite Jacqueline & Swara Bhasker in Arth remake? Kartik Aaryan drops off Aaj Kal co star and alleged girlfriend Sara Ali Khan at the Lucknow airport; WATCH.

We strongly condemn the lines Bharat Mata ki jai Sone ki Chidiya, Dengu, Maleria, gud hai Gobar bhi, Bharat Mata Ki jai (sic).


Song: Bharat Mata Ki Jai
Singer: Keerti Sagathia, Vishal Dadlani
Movie: Shanghai
Music Director: Vishal - Shekhar
Lyrics: Dibakar Banerjee
Music Label: T-Series
General
Complete name : Bharat Mata Ki Jai - Shanghai - AlekhyaDas - {TMRG}.MP4
Format : MPEG-4
Format profile : Base Media / Version 2
Codec ID : mp42
File size : 35.2 MiB
Duration : 1mn 37s
Overall bit rate mode : Variable
Overall bit rate : 3 032 Kbps
Encoded date : UTC 2012-04-23 12:40:33
Tagged date : UTC 2012-04-23 12:40:33
Video
ID : 1
Format : AVC
Format/Info : Advanced Video Codec
Format profile : [email protected]
Format settings, CABAC : Yes
Format settings, ReFrames : 1 frame
Format settings, GOP : M=1, N=30
Codec ID : avc1
Codec ID/Info : Advanced Video Coding
Duration : 1mn 37s
Bit rate : 2 878 Kbps
Maximum bit rate : 5 384 Kbps
Width : 1 280 pixels
Height : 720 pixels
Display aspect ratio : 16:9
Frame rate mode : Constant
Frame rate : 25.000 fps
Color space : YUV
Chroma subsampling : 4:2:0
Bit depth : 8 bits
Scan type : Progressive
Bits/(Pixel*Frame) : 0.125
Stream size : 33.4 MiB (95%)
Tagged date : UTC 2012-04-23 12:40:33
Audio
ID : 2
Format : AAC
Format/Info : Advanced Audio Codec
Format profile : LC
Codec ID : 40
Duration : 1mn 37s
Bit rate mode : Variable
Bit rate : 152 Kbps
Maximum bit rate : 187 Kbps
Channel(s) : 2 channels
Channel positions : Front: L R
Sampling rate : 44.1 KHz
Compression mode : Lossy
Stream size : 1.76 MiB (5%)
Encoded date : UTC 2012-04-23 12:40:33
Tagged date : UTC 2012-04-23 12:40:33







Related music:
Olly Murs Feat Flo Rida - Troublemaker 720p Music Video download Olly Murs Feat Flo Rida - Troublemaker 720p Music Video
Video
English
42.4 MB
4.3
/images/5/2/olly-murs-feat-flo-rida-troublemaker-720p-music-video-.jpg
Cher Lloyd Ft Astro - Want U Back 720p Music Video download Cher Lloyd Ft Astro - Want U Back 720p Music Video
Video
English
46.5 MB
4.1
/images/5/9/cher-lloyd-ft-astro-want-u-back-720p-music-video-.jpg
Miguel - Adorn 720p Music Video download Miguel - Adorn 720p Music Video
Video
English
77.1 MB
4.5
/images/5/3/miguel-adorn-720p-music-video-.jpg
2 Chainz Ft Drake - No Lie 720p download 2 Chainz Ft Drake - No Lie 720p
Video
English
56.5 MB
4.1
/images/5/8/2-chainz-ft-drake-no-lie-720p-.jpg
John Legend - All Of Me 720p Music Video download John Legend - All Of Me 720p Music Video
Video
English
62.7 MB
4.1
/images/5/4/john-legend-all-of-me-720p-music-video-.jpg
Rihanna - Where Have You Been 720p Music Video download Rihanna - Where Have You Been 720p Music Video
Video
English
71.7 MB
4.8
/images/5/3/rihanna-where-have-you-been-720p-music-video-.jpg
P!nk - Try 720p Music Video download P!nk - Try 720p Music Video
Video
English
54.4 MB
4.9
/images/5/7/p21nk-try-720p-music-video-.jpg
Ik Tu Hi Tu Hi - Mausam 720P HD Video Song 2011 download Ik Tu Hi Tu Hi - Mausam 720P HD Video Song 2011
Video
Hindi
86.3 MB
4.4
/images/5/7/ik-tu-hi-tu-hi-mausam-720p-hd-video-song-2011.jpg
Redlight King - Old Man 720p Music Video download Redlight King - Old Man 720p Music Video
Video
English
38.7 MB
4.4
/images/5/2/redlight-king-old-man-720p-music-video-.jpg