Files 42316
» » Madison Beer - Melodies 1080p Music Video
Language: English
Size: 117.9 MB
Votes: 907
Downloaded: 28
Category: Video
Format: MP3, FLAC
4.5

File list

  • Madison Beer - Melodies [Music Video] 1080p [Sbyky].MP4 (117.9 MB)

Music video by Madison Beer performing Melodies. C) 2013 The Island Def Jam Music Group.

Music video by Madison Beer performing Melodies. Melodies (Album Version).

Produced by Ina Wroldsen, Kyle Townsend & TMS. Melodies Lyrics. And it's kind of like Do, Re, Mi About as easy as A, B, C (Baby) Beautiful like a symphony I'm talkin' 'bout you and me, yeah.

Music video · 2013 · 4:04 min Free with Apple Music subscription. More By Madison Beer. See All. All Day And Night (Jax Jones & Martin Solveig Present Europa, Live Session). Radio stations where the song sounded.

Forums Video Mania Music Videos ON DEMAND & WEB RIP TIDAL . . Madison Beer - All Day And Night (Late Night Session) (ft. Jax Jones, Martin Solveig) (TIDAL 1080p). WEB-RiP Madison Beer - Home With You TIDAL 1080p NickiEX. Discussion in 'TIDAL' started by nickiexclusive, Oct 21, 2018. nickiexclusive Video Maniac V. I. P. Uploader. Joined: Sep 23, 2014. ianarturis, Jun 11, 2019, in forum: TIDAL.


General
Complete name : Madison Beer - Melodies [Music Video] 1080p [Sbyky].MP4
Format : MPEG-4
Format profile : Base Media / Version 2
Codec ID : mp42
File size : 118 MiB
Duration : 4mn 2s
Overall bit rate mode : Variable
Overall bit rate : 4 076 Kbps
Encoded date : UTC 2013-09-12 08:20:12
Tagged date : UTC 2013-09-12 08:20:12
Video
ID : 1
Format : AVC
Format/Info : Advanced Video Codec
Format profile : [email protected]
Format settings, CABAC : Yes
Format settings, ReFrames : 2 frames
Codec ID : avc1
Codec ID/Info : Advanced Video Coding
Duration : 4mn 2s
Source duration : 4mn 2s
Bit rate : 3 821 Kbps
Width : 1 920 pixels
Height : 1 080 pixels
Display aspect ratio : 16:9
Frame rate mode : Variable
Frame rate : 23.976 fps
Minimum frame rate : 23.974 fps
Maximum frame rate : 3 000.000 fps
Color space : YUV
Chroma subsampling : 4:2:0
Bit depth : 8 bits
Scan type : Progressive
Bits/(Pixel*Frame) : 0.077
Stream size : 111 MiB (94%)
Source stream size : 111 MiB (94%)
Encoded date : UTC 2013-09-12 08:20:12
Tagged date : UTC 2013-09-12 08:20:12
Audio
ID : 2
Format : AAC
Format/Info : Advanced Audio Codec
Format profile : LC
Codec ID : 40
Duration : 4mn 2s
Bit rate mode : Variable
Bit rate : 254 Kbps
Channel(s) : 2 channels
Channel positions : Front: L R
Sampling rate : 44.1 KHz
Compression mode : Lossy
Stream size : 7.34 MiB (6%)
Encoded date : UTC 2013-09-12 08:19:58
Tagged date : UTC 2013-09-12 08:19:58
Shared By Sbyky

Related music:
Pitbull Ft Ke$ha - Timber 1080p Music Video download Pitbull Ft Ke$ha - Timber 1080p Music Video
Video
English
85.8 MB
4.4
/images/5/7/pitbull-ft-ke24ha-timber-1080p-music-video-.jpg
Sevyn Streeter Ft Kid Ink - nEXt 1080p Music Video download Sevyn Streeter Ft Kid Ink - nEXt 1080p Music Video
Video
English
93.7 MB
4.4
/images/5/4/sevyn-streeter-ft-kid-ink-next-1080p-music-video-.jpg
Madison Beer - Melodies 720p Music Video download Madison Beer - Melodies 720p Music Video
Video
English
65.3 MB
4.7
/images/5/7/madison-beer-melodies-720p-music-video-.jpg
Little Mix - Little Me 1080p Music Video download Little Mix - Little Me 1080p Music Video
Video
English
74.7 MB
4.9
/images/5/1/little-mix-little-me-1080p-music-video-.jpg
INNA - Wow 1080p Music Video download INNA - Wow 1080p Music Video
Video
English
152.3 MB
4.0
/images/noimage.jpg
Avril Lavigne Ft Chad Kroeger - Let Me Go 1080p Music Video download Avril Lavigne Ft Chad Kroeger - Let Me Go 1080p Music Video
Video
English
109.4 MB
4.7
/images/5/4/avril-lavigne-ft-chad-kroeger-let-me-go-1080p-music-video-.jpg
YG Ft DJ Mustard - Pop It, Shake It 1080p Music Video download YG Ft DJ Mustard - Pop It, Shake It 1080p Music Video
Video
English
110.0 MB
4.7
/images/5/9/yg-ft-dj-mustard-pop-it2c-shake-it-1080p-music-video-.jpg
Shakira - Empire 1080p Music Video download Shakira - Empire 1080p Music Video
Video
English
94.2 MB
4.1
/images/5/0/shakira-empire-1080p-music-video-.jpg
Passenger - Let Her Go 1080p Music Video download Passenger - Let Her Go 1080p Music Video
Video
English
86.7 MB
4.2
/images/5/0/passenger-let-her-go-1080p-music-video-.jpg