Files 42316
» » Justin Bieber - Sorry PURPOSE The Movement
Language: English
Size: 72.5 MB
Votes: 482
Downloaded: 48
Category: Single
Format: MP3, FLAC
4.8

File list

  • Justin Bieber - Sorry (PURPOSE The Movement).mp4 (72.5 MB)

Lyrics: Sorry – Justin Bieber

Lyrics: Sorry – Justin Bieber. You gotta go and get Angry at all of my honesty You know I try but I don't do too well with apologies I hope I don't run out of Time could someone call the referee Cause I just need one more shot at forgiveness. I know you know that I made those mistakes maybe once or twice And by once or twice I Mean Maybe a couple a hundred times So let me oh let me Redeem oh redeem oh my self tonight Cause I just need one more shot at second chances. Michael Tucker, Julia Michaels, Justin Bieber, Sonny Moore, Justin Tranter.

Justin Bieber - Sorry (Official Lyric Video) - Продолжительность: 3:19 Justin Bieber Recommended for you. 3:19.

The Tropical Life Radio, 24/7 Live Radio Chill, Study, Relax, Happy Music The Good Life Radio x Sensual Musique 6 282 зрителя. Justin Bieber - Sorry (Official Lyric Video) - Продолжительность: 3:19 Justin Bieber Recommended for you. Mariah Carey, Ariana Grande, Justin Bieber Christmas Songs - Best Pop Christmas Songs 2019 - Продолжительность: 1:05:47 Music Frank Recommended for you.

Justin Bieber - Sorry (PURPOSE: The Movement). Justin Bieber- Sorry (Johnny Orlando Cover) - Продолжительность: 3:19 Johnny Orlando Recommended for you. Конор Макгрегор/Conor McGregor.

Sorry" is a song recorded by Canadian singer Justin Bieber for his fourth studio album, Purpose (2015)

Sorry" is a song recorded by Canadian singer Justin Bieber for his fourth studio album, Purpose (2015). Written by Bieber, Julia Michaels, Justin Tranter, Skrillex, and BloodPop; the song was produced by the latter two. It was released on October 22, 2015, as the second single from the album. A dancehall-pop, tropical house and moombahton song, "Sorry" contains in its instrumentation "brassy horn bleats", warm island rhythms and a dembow riddim beat

Повторите попытку позже.

Повторите попытку позже. Опубликовано: 22 окт. 2017 г. Funny Video Of Justin Bieber - Sorry (PURPOSE : The Movement) and Captain America - Civil War Movie. All sources belong to the following YouTuber. ly/Uf3y0K : Justin Bieber - Sorry (PURPOSE : The Movement).

Is it too late to say I'm sorry now? I'll take every single piece of the blame if you want me to. But you know that there is no innocent one in this game for two. I'll go, I'll go and then you go, you go out and spill the truth. Can we both say the words and forget this? Yeah, is it too late now to say sorry?

Is it too late to say I'm sorry now? I'll take every single piece of the blame if you want me to. Can we both say the words and forget this? Yeah, is it too late now to say sorry? Cause I'm missing more than just your body. Yeah, is it too late now to say sorry? Yeah I know that I let you down. Is it too late to say sorry now?

The Weeb DJ. Justin Bieber - Sorry (PURPOSE The Movement).

Just one day after releasing his new album Purpose, Justin Bieber rolled out 13 videos for the short film Purpose: The Movement, directed by the acclaimed Parris Goebel. The 45-minute film was first aired at the Staples Center in Los Angeles on Friday during Bieber’s three release shows. The clip starts with a back-facing Justin Bieber walking backstage at Wango Tango earlier this year, while his voiceover recalls his state of mind during his turbulent 2013-14.

Bieber teamed up with Scooter Braun and Parris Goebel, the choreographer of "Sorry," to create 13 brand-new music videos to bring life to Purpose through dance (it's called Purpose: The Movement). Bieber released them all this weekend, and included in the bunch is a new video for "What Do You Mean"-featuring the incredible dancers from "Sorry. You can see our breakdown here. And in case you haven't heard any of the Bieb's tracks from his new album, basically the whole thing is about one person: his ex-girlfriend Selena Gomez.





Code:

General
Complete name : Justin Bieber - Sorry (PURPOSE The Movement).mp4
Format : MPEG-4
Format profile : Base Media
Codec ID : isom
File size : 72.5 MiB
Duration : 3mn 25s
Overall bit rate : 2 966 Kbps
Writing application : Lavf56.40.101
Video
ID : 1
Format : AVC
Format/Info : Advanced Video Codec
Format profile : [email protected]
Format settings, CABAC : Yes
Format settings, ReFrames : 3 frames
Codec ID : avc1
Codec ID/Info : Advanced Video Coding
Duration : 3mn 25s
Bit rate : 2 834 Kbps
Width : 1 920 pixels
Height : 1 080 pixels
Display aspect ratio : 16:9
Frame rate mode : Variable
Frame rate : 23.976 fps
Minimum frame rate : 23.974 fps
Maximum frame rate : 90 000.000 fps
Color space : YUV
Chroma subsampling : 4:2:0
Bit depth : 8 bits
Scan type : Progressive
Bits/(Pixel*Frame) : 0.057
Stream size : 69.3 MiB (96%)
Audio
ID : 2
Format : AAC
Format/Info : Advanced Audio Codec
Format profile : LC
Codec ID : 40
Duration : 3mn 25s
Bit rate mode : Constant
Bit rate : 126 Kbps
Channel(s) : 2 channels
Channel positions : Front: L R
Sampling rate : 44.1 KHz
Compression mode : Lossy
Stream size : 3.07 MiB (4%)
Related music:
Maher Zain - Number One For Me 720p Music Video download Maher Zain - Number One For Me 720p Music Video
Video
English
72.8 MB
4.8
/images/5/8/maher-zain-number-one-for-me-720p-music-video-.jpg
Sevyn Streeter Ft Kid Ink - nEXt 1080p Music Video download Sevyn Streeter Ft Kid Ink - nEXt 1080p Music Video
Video
English
93.7 MB
4.4
/images/5/4/sevyn-streeter-ft-kid-ink-next-1080p-music-video-.jpg
Fall Out Boy - Where Did The Party Go 720p Music Video download Fall Out Boy - Where Did The Party Go 720p Music Video
Video
English
46.7 MB
4.9
/images/5/7/fall-out-boy-where-did-the-party-go-720p-music-video-.jpg
Mike Will Made It ft Miley Cyrus Juicy J 23 1080p HDTV-shadowCopy download Mike Will Made It ft Miley Cyrus Juicy J 23 1080p HDTV-shadowCopy
Video
English
143.1 MB
4.8
/images/5/5/mike-will-made-it-ft-miley-cyrus-juicy-j-23-1080p-hdtv-shadowcopy.jpg
YG Ft DJ Mustard - Pop It, Shake It 1080p Music Video download YG Ft DJ Mustard - Pop It, Shake It 1080p Music Video
Video
English
110.0 MB
4.7
/images/5/9/yg-ft-dj-mustard-pop-it2c-shake-it-1080p-music-video-.jpg
Shakira - Empire 1080p Music Video download Shakira - Empire 1080p Music Video
Video
English
94.2 MB
4.1
/images/5/0/shakira-empire-1080p-music-video-.jpg
Far East Movement Ft Justin Bieber - Live My Life 1080p Music Video download Far East Movement Ft Justin Bieber - Live My Life 1080p Music Video
Video
English
194.4 MB
4.0
/images/5/2/far-east-movement-ft-justin-bieber-live-my-life-1080p-music-video-.jpg
Tyga Ft Justin Bieber - Wait For A Minute 1080p download Tyga Ft Justin Bieber - Wait For A Minute 1080p
Video
English
97.8 MB
4.1
/images/5/3/tyga-ft-justin-bieber-wait-for-a-minute-1080p-.jpg