Files 42316
» » A R Rahman, 'Jiya Jale' - Berklee Indian Ensemble mp4 Dil Se Cover Suryadipta
Language: Hindi
Size: 35.8 MB
Votes: 570
Downloaded: 35
Category: MP3
Format: MP3, FLAC
4.3

File list

  • A. R. Rahman, 'Jiya Jale' (Dil Se)- Berklee Indian Ensemble (Cover)(Suryadipta).mp4 (35.8 MB)

A. R. Rahman's best song in Coke Studio. This song was nominated for Oskar .
Try it.
Video
ID : 1
Format : AVC
Format/Info : Advanced Video Codec
Format profile : [email protected]
Format settings, CABAC : Yes
Format settings, ReFrames : 4 frames
Codec ID : V_MPEG4/ISO/AVC
Duration : 1h 46mn
Bit rate : 8 750 Kbps
Width : 1 920 pixels
Height : 1 080 pixels
Display aspect ratio : 16:9
Frame rate mode : Constant
Frame rate : 23.976 fps
Color space : YUV
Chroma subsampling : 4:2:0
Bit depth : 8 bits
Scan type : Progressive
Bits/(Pixel*Frame) : 0.176
Stream size : 6.37 GiB (83%)
Writing library : x264 core 144 r2525 40bb568
Encoding settings : cabac=1 / ref=4 / deblock=1:0:0 / analyse=0x3:0x133 / me=umh / subme=7 / psy=1 / psy_rd=1.00:0.00 / mixed_ref=1 / me_range=16 / chroma_me=1 / trellis=1 / 8x8dct=1 / cqm=0 / deadzone=21,11 / fast_pskip=0 / chroma_qp_offset=-2 / threads=60 / lookahead_threads=8 / sliced_threads=0 / nr=0 / decimate=1 / interlaced=0 / bluray_compat=0 / constrained_intra=0 / bframes=3 / b_pyramid=2 / b_adapt=1 / b_bias=0 / direct=1 / weightb=1 / open_gop=0 / weightp=2 / keyint=250 / keyint_min=23 / scenecut=40 / intra_refresh=0 / rc_lookahead=40 / rc=2pass / mbtree=1 / bitrate=8750 / ratetol=1.0 / qcomp=0.60 / qpmin=0 / qpmax=69 / qpstep=4 / cplxblur=20.0 / qblur=0.5 / ip_ratio=1.40 / aq=1:1.00
Language : Hindi
Default : Yes
Forced : No
Audio
ID : 2
Format : DTS
Format/Info : Digital Theater Systems
Mode : 16
Format settings, Endianness : Big
Codec ID : A_DTS
Duration : 1h 46mn
Bit rate mode : Constant
Bit rate : 1 509 Kbps
Channel(s) : 6 channels
Channel positions : Front: L C R, Side: L R, LFE
Sampling rate : 48.0 KHz
Bit depth : 24 bits
Compression mode : Lossy
Stream size : 1.12 GiB (15%)
Language : Hindi
Default : Yes
Forced : No
Menu
00:00:00.000 : en:00:00:00.000
00:12:29.958 : en:00:12:29.958
00:23:07.803 : en:00:23:07.803
00:31:47.948 : en:00:31:47.948
00:44:17.238 : en:00:44:17.238
00:56:15.747 : en:00:56:15.747
01:05:28.675 : en:01:05:28.675
01:15:21.225 : en:01:15:21.225
01:24:56.967 : en:01:24:56.967
01:37:24.880 : en:01:37:24.880
01:42:53.584 : en:01:42:53.584

Related music:
Beyonce-xo HDTV 1080p-sc download Beyonce-xo HDTV 1080p-sc
Video
English
112.3 MB
4.4
/images/5/6/beyonce-xo-hdtv-1080p-sc.jpg
Chris Brown ft Nicki Minaj-Love More -shadowCopy HD.1080p download Chris Brown ft Nicki Minaj-Love More -shadowCopy HD.1080p
Video
English
103.8 MB
4.6
/images/5/7/chris-brown-ft-nicki-minaj-love-more-shadowcopy-hd1080p.jpg
Gorgon City ft Mnek-Ready for your love-HDTV 720p-shadowCopy download Gorgon City ft Mnek-Ready for your love-HDTV 720p-shadowCopy
Video
English
63.0 MB
4.7
/images/5/2/gorgon-city-ft-mnek-ready-for-your-love-hdtv-720p-shadowcopy.jpg
A Great Big World ft Christina Aguilera-Say Something HDTV 1080p-sc download A Great Big World ft Christina Aguilera-Say Something HDTV 1080p-sc
Video
English
113.0 MB
4.0
/images/5/3/a-great-big-world-ft-christina-aguilera-say-something-hdtv-1080p-sc.jpg
Selena Gomez-Slow Down HDTV 480p-shadowCopy download Selena Gomez-Slow Down HDTV 480p-shadowCopy
Video
English
34.0 MB
4.1
/images/5/1/selena-gomez-slow-down-hdtv-480p-shadowcopy.jpg
Chris Brown ft Nicki Minaj-Love More -shadowCopy SD.480p download Chris Brown ft Nicki Minaj-Love More -shadowCopy SD.480p
Video
English
28.6 MB
4.9
/images/5/3/chris-brown-ft-nicki-minaj-love-more-shadowcopy-sd480p.jpg
David Guetta ft Akon-Sexy Chick HDTV 480p-shadowCopy download David Guetta ft Akon-Sexy Chick HDTV 480p-shadowCopy
Video
English
34.0 MB
4.4
/images/5/0/david-guetta-ft-akon-sexy-chick-hdtv-480p-shadowcopy.jpg