Files 42316
» » Tum Hi Ho Hindi Music [email protected] com-NIKHIL Aashiqui_2 -Various Tunes
Language: Hindi
Size: 80.9 MB
Votes: 142
Downloaded: 81
Category: MP3
Format: MP3, FLAC
4.7

File list

  • Tum_Hi_Ho___Aashiqui_2___-_Gnine_Cinematic_Mix.mp3 (11.8 MB)
  • Aashiqui_2_-_Tum_Hi_Ho_-_DJ_Joel_Remix_-__320_Kbps_.mp3 (11.3 MB)
  • DJ_Devil_India_-_Tum_Hi_Ho__Dubstep_Mix__Aashiqui_2.mp3 (11.3 MB)
  • TUM_HI_HO___AASHIQUI_2____DJ_TEJAS____MELODIC_MEMORIES_MIX___FULL_VERSION.mp3 (9.8 MB)
  • Tum_Hi_Ho_-_Aashiqui_2_-__Children_Club_mix_-_Rnk_.mp3 (9.0 MB)
  • Tum_Hi_Ho__KnoX_Artiste_Energy_Mash_.mp3 (7.8 MB)
  • Aashiqui_2_-_Tum_Hi_Ho_-_Jiten_Mundhwa___Rupesh_Sabui_Remix.mp3 (7.3 MB)
  • Tum_Hi_Ho_-_Aashiqui_2__Zedi_Remix__-_DJ_Zedi.mp3 (3.6 MB)

General Complete name : Tum Hi Ho ( Aashiqui 2 -Various Tunes ) ~~NIKHILDJ Devil India - Tum Hi Ho Dubstep Mix Aashiqui 2.

General Complete name : Tum Hi Ho ( Aashiqui 2 -Various Tunes ) ~~NIKHILDJ Devil India - Tum Hi Ho Dubstep Mix Aashiqui 2. in - DJ Devil India - Tum Hi Ho (Dubstep Mix) Aashiqui 2 Performer : Dj Devil India Recorded date : 2013 Writing library : LAME3.

NIKHIL, extratorrent, extratorrents, extratorrent. cc, extratorrent ag, extratorrent.

Tum Hi Ho ( Aashiqui 2 -Various Tunes ) Hindi Music By~~. com~~NIKHIL, extratorrent, extratorrents, extratorrent.

DJ Ni9e,3,DJ NICK8,1,DJ NIKhil,24,DJ Nilashree,5,DJ NILEsh,13,DJ Ninad,10,DJ Niraj,3,DJ NISHA,12,DJ Nishant,8,DJ Nitish,5,DJ NKD,27,DJ Noise,2,DJ NONIE,22,DJ Notorious,39,DJ NYK,53,DJ NyN,17,DJ NZY,2,DJ O2,42,DJ O2 and SRK, 43,DJ ORANGE,36,DJ P SEN,2,DJ Panache,2,DJ PAPS,14,DJ PARAX,2,DJ Paresh,5,DJ PAROMA,39,DJ Parsh,32,DJ PARTH,8,DJ Pasha,4,DJ Pawan,21,DJ PIK,1,DJ PIYU,22,DJ PIYUSH,1,DJ Pranay,1,DJ PRASAN,2,DJ Prash,1,DJ Pratik,12,DJ Pravin,1,DJ PRD,37,DJ.

You are about to download Tum Hi Ho Aashiqui 2 Songs . Latest APK for Android, This Application . Latest APK for Android, This Application content The songs ofAashiqui2 A very melodious voice and you can download and listen to. .With this application you will be abletolisten to sad songs of bollywood hindi of all kinds such asthelatest and old. bollywod movie starring ASHIQUI 2 with Thesingerwas very animating Sreya Ghoshal, Arijit Singh,Palak Muchhalandmany more. featureASHIQUI 2 MP3ASHIQUI 2 SONGSASHIQUI 2 STREAMING MP3TITLESun Raha Hai Na Tu (Female Version) Aashiqui 2,Sun Raha Hai NaTu - Aashiqui 2, Tum Hi Ho Aashiqui 2 Aditya RoyKapur,Shraddha Kapoor,Tum hi h.

Free Tum Hi Ho piano sheet music is provided for you. Tum Hi Ho is a. Tum Hi Ho is a song from the blockbuster Indian movie Aashiqui 2, sung by Arijit Singh and composed by Mithoon. Various versions of the song were uploaded by amateur singers, guitarists and DJs on social networking sites. Aashiqui 2 had less than 3 weeks for the promotion unlike other Bollywood movies which indulge in months of promotion. However, it was Tum Hi Ho which became a rage and created instant buzz for the film in the market.

Love Radio: Big Love 2. Shazam: Top 100 Russia. Top Recognition of Alice. Tum Hi Ho (From "Aashiqui 2").

Love Radio: Big Love 20. Radio Maximum. New Music: September 2019. Today on the radio: FM hits. New Music: October 2019. Bollywood Boutique.

Tum Hi Ho ( Aashiqui_2 --Various Tunes ) Hindi Music [email protected]~~NIKHIL

General
Complete name : Tum Hi Ho ( Aashiqui_2 --Various Tunes ) [email protected]~~NIKHILAashiqui_2_-_Tum_Hi_Ho_-_DJ_Joel_Remix_-__320_Kbps_.mp3
Format : MPEG Audio
File size : 11.3 MiB
Duration : 4mn 55s
Overall bit rate mode : Constant
Overall bit rate : 320 Kbps
Track name : www.Djhungama.co.in - Aashiqui 2 - Tum Hi Ho - DJ Joel Remix
Performer : Dj Joel [www.Djhungama.co.in]
Genre : Remix
Recorded date : 2013
Writing library : LAME3.98.4
Cover : Yes
Cover type : Cover (front)
Cover MIME : image/jpeg
Comment : www.Djhungama.co.in
Audio
Format : MPEG Audio
Format version : Version 1
Format profile : Layer 3
Mode : Joint stereo
Duration : 4mn 55s
Bit rate mode : Constant
Bit rate : 320 Kbps
Channel(s) : 2 channels
Sampling rate : 44.1 KHz
Compression mode : Lossy
Stream size : 11.3 MiB (100%)
Writing library : LAME3.98.4
General
Complete name : Tum Hi Ho ( Aashiqui_2 --Various Tunes ) [email protected]~~NIKHILAashiqui_2_-_Tum_Hi_Ho_-_Jiten_Mundhwa___Rupesh_Sabui_Remix.mp3
Format : MPEG Audio
File size : 7.26 MiB
Duration : 3mn 9s
Overall bit rate mode : Constant
Overall bit rate : 320 Kbps
Track name : www.Djhungama.co.in - Aashiqui 2 - Tum Hi Ho - Jiten Mundhwa & Rupesh Sabui Remix
Writing library : LAME3.98.4
Cover : Yes
Cover type : Cover (front)
Cover MIME : image/jpeg
Comment : Download From : www.Djhungama.co.in
Audio
Format : MPEG Audio
Format version : Version 1
Format profile : Layer 3
Mode : Joint stereo
Duration : 3mn 9s
Bit rate mode : Constant
Bit rate : 320 Kbps
Channel(s) : 2 channels
Sampling rate : 44.1 KHz
Compression mode : Lossy
Stream size : 7.23 MiB (100%)
Writing library : LAME3.98.4
General
Complete name : Tum Hi Ho ( Aashiqui_2 --Various Tunes ) [email protected]~~NIKHILDJ_Devil_India_-_Tum_Hi_Ho__Dubstep_Mix__Aashiqui_2.mp3
Format : MPEG Audio
File size : 11.3 MiB
Duration : 4mn 54s
Overall bit rate mode : Constant
Overall bit rate : 320 Kbps
Album/Performer : DJ Devil India
Track name : www.Djhungama.co.in - DJ Devil India - Tum Hi Ho (Dubstep Mix) Aashiqui 2
Performer : Dj Devil India [www.Djhungama.co.in]
Recorded date : 2013
Writing library : LAME3.98.4
BPM : 128
Cover : Yes
Cover type : Cover (front)
Cover MIME : image/jpeg
Comment : www.Djhungama.co.in
Audio
Format : MPEG Audio
Format version : Version 1
Format profile : Layer 3
Mode : Joint stereo
Duration : 4mn 54s
Bit rate mode : Constant
Bit rate : 320 Kbps
Channel(s) : 2 channels
Sampling rate : 44.1 KHz
Compression mode : Lossy
Stream size : 11.2 MiB (100%)
Writing library : LAME3.98.4
General
Complete name : Tum Hi Ho ( Aashiqui_2 --Various Tunes ) [email protected]~~NIKHILTum Hi Ho (Dubstep Mix) Aashiqui 2 [email protected].mp3
Format : MPEG Audio
File size : 9.07 MiB
Duration : 4mn 54s
Overall bit rate mode : Constant
Overall bit rate : 256 Kbps
Track name : Tum Hi Ho (Dubstep Mix) Aashiqui 2 [email protected]
Performer : [email protected]
Recorded date : 2013
Writing library : LAME3.97
Encoding settings : Lavf51.12.1
Copyright : www.downloads4djs.co.in
Cover : Yes
Cover type : Cover (front)
Cover MIME : image/jpeg
author : uthor
Audio
Format : MPEG Audio
Format version : Version 1
Format profile : Layer 3
Mode : Joint stereo
Mode extension : MS Stereo
Duration : 4mn 54s
Bit rate mode : Constant
Bit rate : 256 Kbps
Channel(s) : 2 channels
Sampling rate : 48.0 KHz
Compression mode : Lossy
Stream size : 8.99 MiB (99%)
Writing library : LAME3.97
General
Complete name : Tum Hi Ho ( Aashiqui_2 --Various Tunes ) [email protected]~~NIKHILTum_Hi_Ho_-_Aashiqui_2_-__Children_Club_mix_-_Rnk_.mp3
Format : MPEG Audio
File size : 9.05 MiB
Duration : 3mn 56s
Overall bit rate mode : Constant
Overall bit rate : 320 Kbps
Album/Performer : Dj Rnk [www.Djhungama.co.in]
Track name : www.Djhungama.co.in - Tum Hi Ho - Aashiqui 2 - (Children Club mix - Rnk)
Performer : Dj Rnk [www.Djhungama.co.in]
Genre : Club Mix
Recorded date : 2013
Cover : Yes
Cover type : Cover (front)
Cover MIME : image/jpeg
Comment : www.Djhungama.co.in
Audio
Format : MPEG Audio
Format version : Version 1
Format profile : Layer 3
Mode : Dual mono
Duration : 3mn 56s
Bit rate mode : Constant
Bit rate : 320 Kbps
Channel(s) : 2 channels
Sampling rate : 44.1 KHz
Compression mode : Lossy
Stream size : 9.01 MiB (100%)
General
Complete name : Tum Hi Ho ( Aashiqui_2 --Various Tunes ) [email protected]~~NIKHILTum_Hi_Ho_-_Aashiqui_2__Zedi_Remix__-_DJ_Zedi.mp3
Format : MPEG Audio
File size : 3.64 MiB
Duration : 3mn 6s
Overall bit rate mode : Variable
Overall bit rate : 162 Kbps
Album/Performer : Dj ZEDI [www.DJhungama.co.in]
Track name : www.Djhungama.co.in - Tum Hi Ho-Aashiqui 2 (Zedi Remix) - DJ Zedi
Performer : Dj ZEDI [www.DJhungama.co.in]
Recorded date : 2013
Writing library : LAME3.98r
Cover : Yes
Cover type : Cover (front)
Cover MIME : image/jpeg
Comment : www.Djhungama.co.in
Audio
Format : MPEG Audio
Format version : Version 1
Format profile : Layer 3
Mode : Joint stereo
Mode extension : MS Stereo
Duration : 3mn 6s
Bit rate mode : Variable
Bit rate : 162 Kbps
Minimum bit rate : 32.0 Kbps
Channel(s) : 2 channels
Sampling rate : 44.1 KHz
Compression mode : Lossy
Stream size : 3.60 MiB (99%)
Writing library : LAME3.98r
Encoding settings : -m j -V 3 -q 0 -lowpass 18 --vbr-new -b 32
General
Complete name : Tum Hi Ho ( Aashiqui_2 --Various Tunes ) [email protected]~~NIKHILTum_Hi_Ho__KnoX_Artiste_Energy_Mash_.mp3
Format : MPEG Audio
File size : 7.76 MiB
Duration : 3mn 22s
Overall bit rate mode : Constant
Overall bit rate : 320 Kbps
Track name : www.Djhungama.co.in - Tum Hi Ho (KnoX Artiste Energy Mash)
Performer : Dj Knox [www.Djhungama.co.in]
Recorded date : 2013
Cover : Yes
Cover type : Cover (front)
Cover MIME : image/jpeg
Comment : www.Djhungama.co.in
Audio
Format : MPEG Audio
Format version : Version 1
Format profile : Layer 3
Duration : 3mn 22s
Bit rate mode : Constant
Bit rate : 320 Kbps
Channel(s) : 2 channels
Sampling rate : 44.1 KHz
Compression mode : Lossy
Stream size : 7.73 MiB (100%)
General
Complete name : Tum Hi Ho ( Aashiqui_2 --Various Tunes ) [email protected]~~NIKHILTum_Hi_Ho___Aashiqui_2___-_Gnine_Cinematic_Mix.mp3
Format : MPEG Audio
File size : 11.8 MiB
Duration : 5mn 8s
Overall bit rate mode : Constant
Overall bit rate : 320 Kbps
Track name : www.Djhungama.co.in - Tum Hi Ho ( Aashiqui 2 ) - Gnine Cinematic Mix
Performer : Gnine aka Juggy
Genre : Cinematic
Recorded date : 2013
Writing library : LAME3.98
Cover : Yes
Cover type : Cover (front)
Cover MIME : image/jpeg
Comment : www.Djhungama.co.in
Audio
Format : MPEG Audio
Format version : Version 1
Format profile : Layer 3
Mode : Joint stereo
Duration : 5mn 8s
Bit rate mode : Constant
Bit rate : 320 Kbps
Channel(s) : 2 channels
Sampling rate : 48.0 KHz
Compression mode : Lossy
Stream size : 11.8 MiB (100%)
Writing library : LAME3.98
General
Complete name : Tum Hi Ho ( Aashiqui_2 --Various Tunes ) [email protected]~~NIKHILTUM_HI_HO___AASHIQUI_2____DJ_TEJAS____MELODIC_MEMORIES_MIX___FULL_VERSION.mp3
Format : MPEG Audio
File size : 9.76 MiB
Duration : 4mn 14s
Overall bit rate mode : Constant
Overall bit rate : 320 Kbps
Track name : www.Djhungama.co.inTUM HI HO ( AASHIQUI 2 ) DJ TEJAS ( MELODIC MEMORIES MIX ) FULL VERSION
Grouping : www.soundcloud.com/djtejasofficial
Performer : Dj Tejas [www.Djhungama.co.in]
Composer : www.twitter.com/djtejasofficial
Recorded date : 2013
BPM : 128
Cover : Yes
Cover type : Cover (front)
Cover MIME : image/jpeg
Comment : Download From : www.Djhungama.co.in
Audio
Format : MPEG Audio
Format version : Version 1
Format profile : Layer 3
Mode : Joint stereo
Duration : 4mn 15s
Bit rate mode : Constant
Bit rate : 320 Kbps
Channel(s) : 2 channels
Sampling rate : 44.1 KHz
Compression mode : Lossy
Stream size : 9.73 MiB (100%)
xtracted N Collected by -- NIKHIL

THIS TORRENT IS BROUGHT TO U BY

Related music:
NAA MANCHI JESUS TELUGU MUSIC [email protected] com-NIKHIL download NAA MANCHI JESUS TELUGU MUSIC [email protected] com-NIKHIL
MP3
English
114.8 MB
4.5
/images/5/7/naa-manchi-jesus-telugu-music-by-loveislifefoelovers40gmail-com-nikhil.jpg
Sia - Alive download Sia - Alive
MP3
English
10.6 MB
4.7
/images/5/7/sia-alive.jpg
Jessica Mauboy - This Ain't Love download Jessica Mauboy - This Ain't Love
MP3
English
8.6 MB
4.2
/images/5/2/jessica-mauboy-this-ain27t-love.jpg
Dawin - Dessert download Dawin - Dessert
MP3
English
8.6 MB
4.9
/images/5/3/dawin-dessert.jpg
Ellie Goulding - On My Mind download Ellie Goulding - On My Mind
MP3
English
8.6 MB
4.9
/images/5/9/ellie-goulding-on-my-mind.jpg
Jason Derulo - If It Ain't Love download Jason Derulo - If It Ain't Love
Single
English
8.0 MB
4.5
/images/5/0/jason-derulo-if-it-ain27t-love-.jpg
Sam And The Womp - Bom Bom mp3 download Sam And The Womp - Bom Bom mp3
MP3
English
7.0 MB
4.8
/images/5/3/sam-and-the-womp-bom-bom-mp3.jpg
Omi - Hula Hoop download Omi - Hula Hoop
MP3
English
8.5 MB
4.2
/images/5/8/omi-hula-hoop.jpg
The Rubens - Hoops download The Rubens - Hoops
MP3
English
6.5 MB
4.1
/images/5/4/the-rubens-hoops.jpg