Files 42316
» » NAA MANCHI JESUS TELUGU MUSIC [email protected] com-NIKHIL
Language: English
Size: 114.8 MB
Votes: 922
Downloaded: 59
Category: MP3
Format: MP3, FLAC
4.5

File list

  • New Artist - Album Name - Title 04.mp3 (17.1 MB)
  • New Artist - Album Name - Title 02.mp3 (16.5 MB)
  • New Artist - Album Name - Title 06.mp3 (16.0 MB)
  • New Artist - Album Name - Title 07.mp3 (14.4 MB)
  • New Artist - Album Name - Title 05.mp3 (12.8 MB)
  • New Artist - Album Name - Title 03.mp3 (12.2 MB)
  • New Artist - Album Name - Title 09.mp3 (11.5 MB)
  • New Artist - Album Name - Title 08.mp3 (10.4 MB)
  • New Artist - Album Name - Title 01.mp3 (1.8 MB)
  • Picture 003.jpg (701.9 KB)
  • Picture 001.jpg (691.5 KB)
  • Picture 002.jpg (542.3 KB)

NAA MANCHI JESUS TELUGU MUSIC BY~~. com~~NIKHIL 5 torrent download locations

NAA MANCHI JESUS TELUGU MUSIC BY~~. com~~NIKHIL 5 torrent download locations. Download Direct NAA MANCHI JESUS TELUGU MUSIC BY~~. com NAA MANCHI JESUS TELUGU MUSIC BY~~. org NAA MANCHI JESUS TELUGU MUSIC BY~~.

Upload your own music files. This is a Premium feature. Our goal is to help musicians like you to learn to play the music they love

Upload your own music files. Pricing Blog Channels Merchandise. Our goal is to help musicians like you to learn to play the music they love.

Sheck Jesus Fuck it Sheck Jesus, Sheck, Sheck Jesus Sheck Jesus, Sheck, Sheck Jesus Sheck .

Sheck Jesus Fuck it Sheck Jesus, Sheck, Sheck Jesus Sheck Jesus, Sheck, Sheck Jesus Sheck Jesus, Sheck, Sheck Jesus (Mudboy, Mudboy) Sheck Jesus, Sheck, Sheck Jesus (Mudboy, Mud-Mudboy, Mudboy) Sheck Jesus, Sheck, Sheck Jesus (Mudboy, Mud-Mudboy, Mudboy) Sheck Jesus, Sheck, Sheck Jesus Sheck Jesus (Jesus, bitch) Yeah. time Sheck like Kobe, Sprewell Gas is my cologne Good fragrance what we smell Packs comin' in Send it by the Gmail Packs comin' in Send it by the G, G Packs comin' in Packs, packs, packs comin' in Send it by the Gmail Good fragrance is what we smell.

Telugu Christian Song Book application is a collection of Christian Song Lyrics. It has songs from all Christian denominations. If you have any specific songs to be added or have songs in soft copy please contact us infovika. 3. You can get the song details on the details page.

Текст песни: Jesus was a stoner, uh-huh Born in southern California, uh-huh Lying out on the corner, uh-huh While they’re tryna stone us, uh-huh. Jesus was a stoner, uh-huh Born in southern California, uh-huh Lying out on the corner, uh-huh While they’re tryna stone us, uh-huh. Jesus was a stoner, uh-huh Born in southern California, uh-huh Lying out on the corner, uh-huh While they’re tryna stone us, uh-huh You wanna stone us, you wanna stone us Come on stone us They wanna stone us, they wanna stone us Come on stoners I’m called the weed messiah, grab your lighter You’re transfixed with.

Kanye West, The Game, Common - Jesus Piece. На нашем портале собраны музыкальные альбомы различных исполнителей в высоком качестве. Вы можете бесплатно прослушать и скачать любой трек или весь альбом целиком.

General
Complete name : NAA MANCHI JESUS TELUGU MUSIC [email protected]~~NIKHIL

File size : 23.3 KiB
General
Complete name : NAA MANCHI JESUS TELUGU MUSIC [email protected]~~NIKHILNew Artist - Album Name - Title 01.mp3
Format : MPEG Audio
File size : 1.84 MiB
Duration : 48s 65ms
Overall bit rate : 320 Kbps
Album : Album Name
Track name : Title 01
Track name/Position : 01
Performer : New Artist
Writing library : LAME3.98a
Comment : Audio CD Ripper Plus 2.0
Audio
Format : MPEG Audio
Format version : Version 1
Format profile : Layer 3
Mode : Joint stereo
Duration : 48s 117ms
Bit rate mode : Constant
Bit rate : 320 Kbps
Channel(s) : 2 channels
Sampling rate : 44.1 KHz
Compression mode : Lossy
Stream size : 1.83 MiB (100%)
Writing library : LAME3.98a
Encoding settings : -m j -V 4 -q 3 -lowpass 20.5
General
Complete name : NAA MANCHI JESUS TELUGU MUSIC [email protected]~~NIKHILNew Artist - Album Name - Title 02.mp3
Format : MPEG Audio
File size : 16.5 MiB
Duration : 7mn 13s
Overall bit rate : 320 Kbps
Album : Album Name
Track name : Title 02
Track name/Position : 02
Performer : New Artist
Writing library : LAME3.98a
Comment : Audio CD Ripper Plus 2.0
Audio
Format : MPEG Audio
Format version : Version 1
Format profile : Layer 3
Mode : Joint stereo
Mode extension : MS Stereo
Duration : 7mn 13s
Bit rate mode : Constant
Bit rate : 320 Kbps
Channel(s) : 2 channels
Sampling rate : 44.1 KHz
Compression mode : Lossy
Stream size : 16.5 MiB (100%)
Writing library : LAME3.98a
Encoding settings : -m j -V 4 -q 3 -lowpass 20.5
General
Complete name : NAA MANCHI JESUS TELUGU MUSIC [email protected]~~NIKHILNew Artist - Album Name - Title 03.mp3
Format : MPEG Audio
File size : 12.2 MiB
Duration : 5mn 19s
Overall bit rate : 320 Kbps
Album : Album Name
Track name : Title 03
Track name/Position : 03
Performer : New Artist
Writing library : LAME3.98a
Comment : Audio CD Ripper Plus 2.0
Audio
Format : MPEG Audio
Format version : Version 1
Format profile : Layer 3
Mode : Joint stereo
Duration : 5mn 19s
Bit rate mode : Constant
Bit rate : 320 Kbps
Channel(s) : 2 channels
Sampling rate : 44.1 KHz
Compression mode : Lossy
Stream size : 12.2 MiB (100%)
Writing library : LAME3.98a
Encoding settings : -m j -V 4 -q 3 -lowpass 20.5


General
Complete name : NAA MANCHI JESUS TELUGU MUSIC [email protected]~~NIKHILNew Artist - Album Name - Title 04.mp3
Format : MPEG Audio
File size : 17.1 MiB
Duration : 7mn 28s
Overall bit rate : 320 Kbps
Album : Album Name
Track name : Title 04
Track name/Position : 04
Performer : New Artist
Writing library : LAME3.98a
Comment : Audio CD Ripper Plus 2.0
Audio
Format : MPEG Audio
Format version : Version 1
Format profile : Layer 3
Mode : Joint stereo
Duration : 7mn 28s
Bit rate mode : Constant
Bit rate : 320 Kbps
Channel(s) : 2 channels
Sampling rate : 44.1 KHz
Compression mode : Lossy
Stream size : 17.1 MiB (100%)
Writing library : LAME3.98a
Encoding settings : -m j -V 4 -q 3 -lowpass 20.5
General
Complete name : NAA MANCHI JESUS TELUGU MUSIC [email protected]~~NIKHILNew Artist - Album Name - Title 05.mp3
Format : MPEG Audio
File size : 12.8 MiB
Duration : 5mn 36s
Overall bit rate : 320 Kbps
Album : Album Name
Track name : Title 05
Track name/Position : 05
Performer : New Artist
Writing library : LAME3.98a
Comment : Audio CD Ripper Plus 2.0
Audio
Format : MPEG Audio
Format version : Version 1
Format profile : Layer 3
Mode : Joint stereo
Duration : 5mn 36s
Bit rate mode : Constant
Bit rate : 320 Kbps
Channel(s) : 2 channels
Sampling rate : 44.1 KHz
Compression mode : Lossy
Stream size : 12.8 MiB (100%)
Writing library : LAME3.98a
Encoding settings : -m j -V 4 -q 3 -lowpass 20.5
General
Complete name : NAA MANCHI JESUS TELUGU MUSIC [email protected]~~NIKHILNew Artist - Album Name - Title 06.mp3
Format : MPEG Audio
File size : 16.0 MiB
Duration : 7mn 0s
Overall bit rate : 320 Kbps
Album : Album Name
Track name : Title 06
Track name/Position : 06
Performer : New Artist
Writing library : LAME3.98a
Comment : Audio CD Ripper Plus 2.0
Audio
Format : MPEG Audio
Format version : Version 1
Format profile : Layer 3
Mode : Joint stereo
Duration : 7mn 0s
Bit rate mode : Constant
Bit rate : 320 Kbps
Channel(s) : 2 channels
Sampling rate : 44.1 KHz
Compression mode : Lossy
Stream size : 16.0 MiB (100%)
Writing library : LAME3.98a
Encoding settings : -m j -V 4 -q 3 -lowpass 20.5
General
Complete name : NAA MANCHI JESUS TELUGU MUSIC [email protected]~~NIKHILNew Artist - Album Name - Title 07.mp3
Format : MPEG Audio
File size : 14.4 MiB
Duration : 6mn 17s
Overall bit rate : 320 Kbps
Album : Album Name
Track name : Title 07
Track name/Position : 07
Performer : New Artist
Writing library : LAME3.98a
Comment : Audio CD Ripper Plus 2.0
Audio
Format : MPEG Audio
Format version : Version 1
Format profile : Layer 3
Mode : Joint stereo
Duration : 6mn 17s
Bit rate mode : Constant
Bit rate : 320 Kbps
Channel(s) : 2 channels
Sampling rate : 44.1 KHz
Compression mode : Lossy
Stream size : 14.4 MiB (100%)
Writing library : LAME3.98a
Encoding settings : -m j -V 4 -q 3 -lowpass 20.5
General
Complete name : NAA MANCHI JESUS TELUGU MUSIC [email protected]~~NIKHILNew Artist - Album Name - Title 08.mp3
Format : MPEG Audio
File size : 10.4 MiB
Duration : 4mn 33s
Overall bit rate : 320 Kbps
Album : Album Name
Track name : Title 08
Track name/Position : 08
Performer : New Artist
Writing library : LAME3.98a
Comment : Audio CD Ripper Plus 2.0
Audio
Format : MPEG Audio
Format version : Version 1
Format profile : Layer 3
Mode : Joint stereo
Duration : 4mn 33s
Bit rate mode : Constant
Bit rate : 320 Kbps
Channel(s) : 2 channels
Sampling rate : 44.1 KHz
Compression mode : Lossy
Stream size : 10.4 MiB (100%)
Writing library : LAME3.98a
Encoding settings : -m j -V 4 -q 3 -lowpass 20.5
General
Complete name : NAA MANCHI JESUS TELUGU MUSIC [email protected]~~NIKHILNew Artist - Album Name - Title 09.mp3
Format : MPEG Audio
File size : 11.5 MiB
Duration : 5mn 2s
Overall bit rate : 320 Kbps
Album : Album Name
Track name : Title 09
Track name/Position : 09
Performer : New Artist
Writing library : LAME3.98a
Comment : Audio CD Ripper Plus 2.0
Audio
Format : MPEG Audio
Format version : Version 1
Format profile : Layer 3
Mode : Joint stereo
Duration : 5mn 2s
Bit rate mode : Constant
Bit rate : 320 Kbps
Channel(s) : 2 channels
Sampling rate : 44.1 KHz
Compression mode : Lossy
Stream size : 11.5 MiB (100%)
Writing library : LAME3.98a
Encoding settings : -m j -V 4 -q 3 -lowpass 20.5
General
Complete name : NAA MANCHI JESUS TELUGU MUSIC [email protected]~~NIKHILPicture 001.jpg
Format : JPEG
File size : 691 KiB
Image
Format : JPEG
Width : 1 024 pixels
Height : 1 296 pixels
Chroma subsampling : 4:2:0
Bit depth : 8 bits
Compression mode : Lossy
General
Complete name : NAA MANCHI JESUS TELUGU MUSIC [email protected]~~NIKHILPicture 002.jpg
Format : JPEG
File size : 542 KiB
Image
Format : JPEG
Width : 1 024 pixels
Height : 1 040 pixels
Chroma subsampling : 4:2:0
Bit depth : 8 bits
Compression mode : Lossy
General
Complete name : NAA MANCHI JESUS TELUGU MUSIC [email protected]~~NIKHILPicture 003.jpg
Format : JPEG
File size : 702 KiB
Image
Format : JPEG
Width : 976 pixels
Height : 944 pixels
Chroma subsampling : 4:2:0
Bit depth : 8 bits
Compression mode : Lossy
pls forward ur comment for the further posing as such ones....
THIS TORRENT IS BROUGHT TO U BY

Related music:
Sia - Alive download Sia - Alive
MP3
English
10.6 MB
4.7
/images/5/7/sia-alive.jpg
Dawin - Dessert download Dawin - Dessert
MP3
English
8.6 MB
4.9
/images/5/3/dawin-dessert.jpg
Jabardasth - 320 VBR Telugu Music [email protected] com-NIKHIL 2013 download Jabardasth - 320 VBR Telugu Music [email protected] com-NIKHIL 2013
MP3
Other
43.4 MB
4.3
/images/5/0/jabardasth-320-vbr-telugu-music-by-loveislifeforlovers40gmail-com-nikhil-2013.jpg
Sam And The Womp - Bom Bom mp3 download Sam And The Womp - Bom Bom mp3
MP3
English
7.0 MB
4.8
/images/5/3/sam-and-the-womp-bom-bom-mp3.jpg
Omi - Hula Hoop download Omi - Hula Hoop
MP3
English
8.5 MB
4.2
/images/5/8/omi-hula-hoop.jpg
Tum Hi Ho Hindi Music [email protected] com-NIKHIL Aashiqui_2 -Various Tunes download Tum Hi Ho Hindi Music [email protected] com-NIKHIL Aashiqui_2 -Various Tunes
MP3
Hindi
80.9 MB
4.7
/images/5/6/tum-hi-ho-hindi-music-by-loveislifeforlovers40gmail-com-nikhil-aashiqui2-various-tunes.jpg
Alludu Seenu ACD 320kbps CBR - Team CT MP3 2014 download Alludu Seenu ACD 320kbps CBR - Team CT MP3 2014
MP3
Other
57.7 MB
4.4
/images/5/8/alludu-seenu-acd-320kbps-cbr-team-ct-mp3-2014.jpg
Bhale Manchi Roju - Telugu Mp3 Songs - - 2015 320 Kbps download Bhale Manchi Roju - Telugu Mp3 Songs - - 2015 320 Kbps
MP3
Hindi
63.3 MB
4.2
/images/5/9/bhale-manchi-roju-telugu-mp3-songs--2015-320-kbps.jpg
VikramSimha ACD 128Kbps CBR Kochadaiyaan download VikramSimha ACD 128Kbps CBR Kochadaiyaan
MP3
Other
47.1 MB
4.1
/images/5/2/vikramsimha-acd-128kbps-cbr-kochadaiyaan.jpg