Files 42316
» » Ministry Of Sound Anthems Sound Of Dubstep 2012 Disc 1&2 CD RIP
Language: English
Size: 1.2 GB
Votes: 384
Downloaded: 33
Category: Lossless
Format: MP3, FLAC
4.4

File list

Ministry Of Sound Anthems Sound Of Dubstep Ministry Of Sound Anthems Sound Of Dubstep (Disc 1) (Mixed By Calvertron)
  • 10 Feel So Close (Nero Remix).flac (41.9 MB)
  • 02 Big Boss.flac (4.0 MB)
  • 03 Who Is Ready To Jump (Dillon Francis Remix).flac (36.3 MB)
  • 04 Levels (Skrillex Remix).flac (39.5 MB)
  • 05 X Rated (Feat. Messinian) (Space Laces Remix).flac (4.1 MB)
  • 06 Killer (Feat. Dee Freer).flac (16.4 MB)
  • 07 Turn The World On (Feat. Dev) (Kezwik & Protohype Remix).flac (18.3 MB)
  • 08 Already Lost (Feat. Tigerlight).flac (21.2 MB)
  • 09 Promises (Skrillex & Nero Remix).flac (37.4 MB)
  • 01 Bombs Away (Kezwik Remix).flac (19.1 MB)
  • 11 I Need Air (Feat. Angela Hunte).flac (35.6 MB)
  • 12 Ginga Pubes.flac (11.2 MB)
  • 13 Hot Right Now (Feat. Rita Ora) (Zomboy Remix).flac (17.8 MB)
  • 14 Get By.flac (12.1 MB)
  • 15 Somebody To Love.flac (25.0 MB)
  • 16 Earthquakey People (Feat. Rivers Cuomo) (Alvin Risk Remix).flac (19.0 MB)
  • 17 Kick Out The Epic MotherfxCker (Datsik Remix).flac (11.7 MB)
  • 18 Smack Your Bitch Up.flac (16.7 MB)
  • 19 Bring The Bass Back (Calvertron Remix).flac (19.1 MB)
  • 20 8Bit Dreamz (Feat. Mellefresh).flac (26.7 MB)
  • 21 Hold On To Love (Feat. Sue Cho) (Killagraham Remix).flac (20.0 MB)
  • 22 Bad (Featt. Messinian).flac (38.4 MB)
  • 23 When The Rain Is Gone (Delta Heavy Remix).flac (29.3 MB)
  • 24 Abyss.flac (14.6 MB)
  • 25 Wile Out (Feat. Ms.Dynamite).flac (19.4 MB)
  • 26 Rattle (Candyland Remix).flac (22.0 MB)
  • 27 One Click Headshot.flac (17.9 MB)
  • 28 Say Nothing (TC Remix).flac (15.8 MB)
  • Various Artists - Ministry Of Sound Anthems Sound Of Dubstep (Disc 1) (Mixed By Calvertron).jpg (109.3 KB)
  • Various Artists - Ministry Of Sound Anthems Sound Of Dubstep (Disc 1) (Mixed By Calvertron).log (29.3 KB)
Ministry Of Sound Anthems Sound Of Dubstep (Disc 2) (Mixed By Filth Collins)
  • 01 My World (Brillz Remix).flac (14.5 MB)
  • 02 Make My Whole World.flac (25.5 MB)
  • 03 I Can't Stop.flac (19.4 MB)
  • 04 Take Over Control (Feat. Eva Simons) (Adam F Remix).flac (24.0 MB)
  • 05 Through The Night (Feat. Tom Cane) (501 Remix).flac (23.5 MB)
  • 06 Universal.flac (19.0 MB)
  • 07 Bomb Bass.flac (14.6 MB)
  • 08 Sir Rock A Lot.flac (17.9 MB)
  • 09 Fatboy Riddim.flac (14.2 MB)
  • 10 You Need Me, I Don't Need You (Gemini Remix).flac (35.1 MB)
  • 11 Bass Salt.flac (22.4 MB)
  • 12 Let Yourself Go.flac (14.2 MB)
  • 13 Let You Down.flac (17.7 MB)
  • 14 Night.flac (17.6 MB)
  • 15 Ghosts N Stuff (Feat. Rob Swire) (Nero Remix).flac (31.4 MB)
  • 16 We've Only Just Begun (Feat. Ester Dean) (Thunderskank & Trufix Remix).flac (17.9 MB)
  • 17 Girly.flac (39.7 MB)
  • 18 Louder (Doctor P & Flux Pavillion Remix).flac (15.7 MB)
  • 19 Galaxies & Stars (Feat. Ce'cile).flac (32.9 MB)
  • 20 The Matrix.flac (10.4 MB)
  • 21 Turn Up (Feat. DJ Carnage).flac (11.4 MB)
  • 22 I've Been Waiting.flac (15.4 MB)
  • 23 Molly (Borgore Suck My Tit Remix).flac (11.9 MB)
  • 24 Show Me A Sign.flac (19.8 MB)
  • 25 Time And Space.flac (15.4 MB)
  • 26 Levels (VIP Mix).flac (19.0 MB)
  • 27 Death Ray.flac (16.3 MB)
  • 28 Cinema (Feat. Gary Go) (Skrillex Remix).flac (28.4 MB)
  • 29 Household Goods (Zeds Dead Remix).flac (20.4 MB)
  • Various Artists - Ministry Of Sound Anthems Sound Of Dubstep (Disc 2) (Mixed By Filth Collins).jpg (109.3 KB)
  • Various Artists - Ministry Of Sound Anthems Sound Of Dubstep (Disc 2) (Mixed By Filth Collins).log (30.1 KB)

8 MB. Various Artists - Ministry Of Sound Anthems Sound Of Dubstep (Disc 1) (Mixed By Calvertron).

8 MB. 10. KB. 2. 01 My World (Brillz Remix).

Good pre-owned condition: imperfections present including scratches (does not affect play). Anthems Collection - Ministry Of Sound - 5 CD's Album Box Set - Various Artists. 82. 3 rub. + 49. 9 rub p&p. Va ministry of sound the sound of dubstep 4 (2012) brand new sealed 2CD set. 1,084. 95 rub. + 60. 1 rub p&p -ministry of sound: winter anthems, variou CD new. 13. + 26. Deep House Anthems Ministry Of Sound. 38. + 8. 3 rub p&p. Anthems Disco - 3 x CD Ministry Of Sound (C820). 70 rub. + 65.

va – the best sound of dubstep worldwide-ministr. VA Ministry Of Sound Running Trap – Mash Up CD2 Mixed by The Cut Up Boys. VA – Ministry Of Sound Deep House Anthems (CD3. :40. Armin van Buuren - A State of Trance Episode 55. (0. 3. 2012) (Live Ministry Of Sound in London, UK) – Omnia & IRA-The Fusion (Armin van Buure. 2:05. Ministry Of Sound – The Sound of Dubstep Mix 1. 4:10. Spwee – Kung Fu (Original Mix). VA – Ministry Of Sound Deep House Anthems (CD. 4:04. VA – Ministry Of Sound The Sound Of Dubstep

8 MB. 29 Household Goods (Zeds Dead Remix). MB. Various Artists - Ministry Of Sound Anthems Sound Of Dubstep (Disc 2) (Mixed By Filth Collins).

Ministry of Sound present The 2012 Annual. 2 Discs of the best dance and club tracks which have torn apart dance floors throughout 2011 dotted between the freshest of future anthems, destined to be the sounds of 2012

Ministry of Sound present The 2012 Annual. 2 Discs of the best dance and club tracks which have torn apart dance floors throughout 2011 dotted between the freshest of future anthems, destined to be the sounds of 2012.

Listen free to Tek-One – Ministry of Sound - The Sound of Dubstep . own tracks as well as their own versions of dubstep dancefloor anthems. Tek-One is a brand spanking new dj and live dubstep act encompassing elements of electro and hard d&b

Listen free to Tek-One – Ministry of Sound - The Sound of Dubstep - Disc 1. Discover more music, concerts, videos, and pictures with the largest catalogue online at Last. Tek-One is a brand spanking new dj and live dubstep act encompassing elements of electro and hard d&b. The live show consists of an acoustic kit, beats, bass and synths played live, playing Tek-One's own tracks as well as their own versions of dubstep dancefloor anthems.

Ministry of Sound brings you the latest buzz genre to emerge from the underground club scene

Ministry of Sound brings you the latest buzz genre to emerge from the underground club scene.


EAC Log: Disc 1
Exact Audio Copy V1.3 from 2. September 2016
EAC extraction logfile from 6. November 2019, 21:40
Various Artists / Ministry Of Sound Anthems Sound Of Dubstep (Disc 1) (Mixed By Calvertron)
Used drive  : Optiarc DVD RW AD-7740H   Adapter: 1  ID: 0
Read mode               : Secure
Utilize accurate stream : Yes
Defeat audio cache      : Yes
Make use of C2 pointers : No
Read offset correction                      : 48
Overread into Lead-In and Lead-Out          : No
Fill up missing offset samples with silence : Yes
Delete leading and trailing silent blocks   : No
Null samples used in CRC calculations       : Yes
Used interface                              : Native Win32 interface for Win NT & 2000
Gap handling                                : Appended to previous track
Used output format              : User Defined Encoder
Selected bitrate                : 1024 kBit/s
Quality                         : High
Add ID3 tag                     : No
Command line compressor         : C:Program Files (x86)Exact Audio CopyFlacflac.exe
Additional command line options : -8 -V -T "ARTIST=%artist%" -T "TITLE=%title%" -T "ALBUM=%albumtitle%" -T "DATE=%year%" -T "TRACKNUMBER=%tracknr%" -T "GENRE=%genre%" -T "PERFORMER=%albuminterpret%" -T "COMPOSER=%composer%" %haslyrics%--tag-from-file=LYRICS="%lyricsfile%"%haslyrics% -T "ALBUMARTIST=%albumartist%" -T "DISCNUMBER=%cdnumber%" -T "TOTALDISCS=%totalcds%" -T "TOTALTRACKS=%numtracks%" -T "COMMENT=%comment%" %source% -o %dest%
TOC of the extracted CD
    Track |   Start  |  Length  | Start sector | End sector
   -
       1  |  0:00.00 |  2:24.00 |         0    |    10799  
       2  |  2:24.00 |  0:27.33 |     10800    |    12857  
       3  |  2:51.33 |  4:13.53 |     12858    |    31885  
       4  |  7:05.11 |  4:32.42 |     31886    |    52327  
       5  | 11:37.53 |  0:29.09 |     52328    |    54511  
       6  | 12:06.62 |  1:49.57 |     54512    |    62743  
       7  | 13:56.44 |  2:03.31 |     62744    |    71999  
       8  | 16:00.00 |  2:30.01 |     72000    |    83250  
       9  | 18:30.01 |  4:21.32 |     83251    |   102857  
      10  | 22:51.33 |  4:47.74 |    102858    |   124456  
      11  | 27:39.32 |  4:14.11 |    124457    |   143517  
      12  | 31:53.43 |  1:21.66 |    143518    |   149658  
      13  | 33:15.34 |  2:03.31 |    149659    |   158914  
      14  | 35:18.65 |  1:22.21 |    158915    |   165085  
      15  | 36:41.11 |  3:04.20 |    165086    |   178905  
      16  | 39:45.31 |  2:21.31 |    178906    |   189511  
      17  | 42:06.62 |  1:22.21 |    189512    |   195682  
      18  | 43:29.08 |  2:03.32 |    195683    |   204939  
      19  | 45:32.40 |  2:17.10 |    204940    |   215224  
      20  | 47:49.50 |  2:58.24 |    215225    |   228598  
      21  | 50:47.74 |  2:17.11 |    228599    |   238884  
      22  | 53:05.10 |  4:24.72 |    238885    |   258756  
      23  | 57:30.07 |  3:18.34 |    258757    |   273640  
      24  | 60:48.41 |  1:49.53 |    273641    |   281868  
      25  | 62:38.19 |  2:41.32 |    281869    |   293975  
      26  | 65:19.51 |  2:48.61 |    293976    |   306636  
      27  | 68:08.37 |  2:19.07 |    306637    |   317068  
      28  | 70:27.44 |  1:50.04 |    317069    |   325322  
Track  1
    Filename E:Ministry Of Sound Anthems Sound Of DubstepMinistry Of Sound Anthems Sound Of Dubstep (Disc 1) (Mixed By Calvertron)1 Bombs Away (Kezwik Remix).wav
    Pre-gap length  0:00:02.00
    Peak level 99.4 %
    Extraction speed 2.1 X
    Track quality 100.0 %
    Copy CRC B39C98CA
    Accurately ripped (confidence 2)  [079D15A7]  (AR v2)
    Copy OK
Track  2
    Filename E:Ministry Of Sound Anthems Sound Of DubstepMinistry Of Sound Anthems Sound Of Dubstep (Disc 1) (Mixed By Calvertron)2 Big Boss.wav
    Peak level 99.4 %
    Extraction speed 1.2 X
    Track quality 100.0 %
    Copy CRC 1A62C774
    Accurately ripped (confidence 2)  [306BA148]  (AR v2)
    Copy OK
Track  3
    Filename E:Ministry Of Sound Anthems Sound Of DubstepMinistry Of Sound Anthems Sound Of Dubstep (Disc 1) (Mixed By Calvertron)3 Who Is Ready To Jump (Dillon Francis Remix).wav
    Peak level 99.4 %
    Extraction speed 2.7 X
    Track quality 100.0 %
    Copy CRC 3FA33680
    Accurately ripped (confidence 2)  [6C0235EA]  (AR v2)
    Copy OK
Track  4
    Filename E:Ministry Of Sound Anthems Sound Of DubstepMinistry Of Sound Anthems Sound Of Dubstep (Disc 1) (Mixed By Calvertron)4 Levels (Skrillex Remix).wav
    Peak level 99.4 %
    Extraction speed 2.2 X
    Track quality 99.9 %
    Copy CRC 5EE8A56D
    Accurately ripped (confidence 2)  [36AD976E]  (AR v2)
    Copy OK
Track  5
    Filename E:Ministry Of Sound Anthems Sound Of DubstepMinistry Of Sound Anthems Sound Of Dubstep (Disc 1) (Mixed By Calvertron)5 X Rated (Feat. Messinian) (Space Laces Remix).wav
    Peak level 99.4 %
    Extraction speed 1.4 X
    Track quality 100.0 %
    Copy CRC F7500DBA
    Accurately ripped (confidence 2)  [F28117D8]  (AR v2)
    Copy OK
Track  6
    Filename E:Ministry Of Sound Anthems Sound Of DubstepMinistry Of Sound Anthems Sound Of Dubstep (Disc 1) (Mixed By Calvertron)6 Killer (Feat. Dee Freer).wav
    Peak level 99.4 %
    Extraction speed 2.7 X
    Track quality 100.0 %
    Copy CRC 3EDF9657
    Accurately ripped (confidence 2)  [0996602A]  (AR v2)
    Copy OK
Track  7
    Filename E:Ministry Of Sound Anthems Sound Of DubstepMinistry Of Sound Anthems Sound Of Dubstep (Disc 1) (Mixed By Calvertron)7 Turn The World On (Feat. Dev) (Kezwik & Protohype Remix).wav
    Peak level 99.4 %
    Extraction speed 2.8 X
    Track quality 100.0 %
    Copy CRC AECD9040
    Accurately ripped (confidence 2)  [5DAA1754]  (AR v2)
    Copy OK
Track  8
    Filename E:Ministry Of Sound Anthems Sound Of DubstepMinistry Of Sound Anthems Sound Of Dubstep (Disc 1) (Mixed By Calvertron)8 Already Lost (Feat. Tigerlight).wav
    Peak level 99.6 %
    Extraction speed 3.1 X
    Track quality 100.0 %
    Copy CRC D3C74BEF
    Accurately ripped (confidence 2)  [7ECE5913]  (AR v2)
    Copy OK
Track  9
    Filename E:Ministry Of Sound Anthems Sound Of DubstepMinistry Of Sound Anthems Sound Of Dubstep (Disc 1) (Mixed By Calvertron)9 Promises (Skrillex & Nero Remix).wav
    Peak level 99.4 %
    Extraction speed 3.5 X
    Track quality 100.0 %
    Copy CRC 138D487D
    Accurately ripped (confidence 2)  [653DB3E0]  (AR v2)
    Copy OK
Track 10
    Filename E:Ministry Of Sound Anthems Sound Of DubstepMinistry Of Sound Anthems Sound Of Dubstep (Disc 1) (Mixed By Calvertron)10 Feel So Close (Nero Remix).wav
    Peak level 99.4 %
    Extraction speed 3.7 X
    Track quality 100.0 %
    Copy CRC 3315E44F
    Accurately ripped (confidence 2)  [646B9E5C]  (AR v2)
    Copy OK
Track 11
    Filename E:Ministry Of Sound Anthems Sound Of DubstepMinistry Of Sound Anthems Sound Of Dubstep (Disc 1) (Mixed By Calvertron)11 I Need Air (Feat. Angela Hunte).wav
    Peak level 99.4 %
    Extraction speed 3.9 X
    Track quality 100.0 %
    Copy CRC 0A394CFD
    Accurately ripped (confidence 2)  [33E909F5]  (AR v2)
    Copy OK
Track 12
    Filename E:Ministry Of Sound Anthems Sound Of DubstepMinistry Of Sound Anthems Sound Of Dubstep (Disc 1) (Mixed By Calvertron)12 Ginga Pubes.wav
    Peak level 99.4 %
    Extraction speed 3.1 X
    Track quality 100.0 %
    Copy CRC 904EF2D1
    Accurately ripped (confidence 2)  [6DCAEFB2]  (AR v2)
    Copy OK
Track 13
    Filename E:Ministry Of Sound Anthems Sound Of DubstepMinistry Of Sound Anthems Sound Of Dubstep (Disc 1) (Mixed By Calvertron)13 Hot Right Now (Feat. Rita Ora) (Zomboy Remix).wav
    Peak level 99.4 %
    Extraction speed 3.3 X
    Track quality 100.0 %
    Copy CRC A29F595F
    Accurately ripped (confidence 2)  [85AFD533]  (AR v2)
    Copy OK
Track 14
    Filename E:Ministry Of Sound Anthems Sound Of DubstepMinistry Of Sound Anthems Sound Of Dubstep (Disc 1) (Mixed By Calvertron)14 Get By.wav
    Peak level 99.4 %
    Extraction speed 3.2 X
    Track quality 100.0 %
    Copy CRC 6967C8F3
    Accurately ripped (confidence 2)  [C8B5304E]  (AR v2)
    Copy OK
Track 15
    Filename E:Ministry Of Sound Anthems Sound Of DubstepMinistry Of Sound Anthems Sound Of Dubstep (Disc 1) (Mixed By Calvertron)15 Somebody To Love.wav
    Peak level 99.4 %
    Extraction speed 2.7 X
    Track quality 99.9 %
    Copy CRC 200F6042
    Accurately ripped (confidence 2)  [F215DF9E]  (AR v2)
    Copy OK
Track 16
    Filename E:Ministry Of Sound Anthems Sound Of DubstepMinistry Of Sound Anthems Sound Of Dubstep (Disc 1) (Mixed By Calvertron)16 Earthquakey People (Feat. Rivers Cuomo) (Alvin Risk Remix).wav
    Peak level 99.4 %
    Extraction speed 2.3 X
    Track quality 99.9 %
    Copy CRC D69C6D6E
    Accurately ripped (confidence 2)  [3A52F635]  (AR v2)
    Copy OK
Track 17
    Filename E:Ministry Of Sound Anthems Sound Of DubstepMinistry Of Sound Anthems Sound Of Dubstep (Disc 1) (Mixed By Calvertron)17 Kick Out The Epic MotherfxCker (Datsik Remix).wav
    Peak level 99.4 %
    Extraction speed 3.2 X
    Track quality 100.0 %
    Copy CRC F81A1243
    Accurately ripped (confidence 2)  [9B2DDDB8]  (AR v2)
    Copy OK
Track 18
    Filename E:Ministry Of Sound Anthems Sound Of DubstepMinistry Of Sound Anthems Sound Of Dubstep (Disc 1) (Mixed By Calvertron)18 Smack Your Bitch Up.wav
    Peak level 99.4 %
    Extraction speed 3.9 X
    Track quality 100.0 %
    Copy CRC 3AB04FAC
    Accurately ripped (confidence 2)  [5AFC5DD5]  (AR v2)
    Copy OK
Track 19
    Filename E:Ministry Of Sound Anthems Sound Of DubstepMinistry Of Sound Anthems Sound Of Dubstep (Disc 1) (Mixed By Calvertron)19 Bring The Bass Back (Calvertron Remix).wav
    Peak level 99.4 %
    Extraction speed 2.5 X
    Track quality 99.9 %
    Copy CRC AB1E60A0
    Accurately ripped (confidence 2)  [EBDEAE36]  (AR v2)
    Copy OK
Track 20
    Filename E:Ministry Of Sound Anthems Sound Of DubstepMinistry Of Sound Anthems Sound Of Dubstep (Disc 1) (Mixed By Calvertron)20 8Bit Dreamz (Feat. Mellefresh).wav
    Peak level 99.4 %
    Extraction speed 4.1 X
    Track quality 100.0 %
    Copy CRC 06A0BB2E
    Accurately ripped (confidence 2)  [64F42D3F]  (AR v2)
    Copy OK
Track 21
    Filename E:Ministry Of Sound Anthems Sound Of DubstepMinistry Of Sound Anthems Sound Of Dubstep (Disc 1) (Mixed By Calvertron)21 Hold On To Love (Feat. Sue Cho) (Killagraham Remix).wav
    Peak level 99.4 %
    Extraction speed 4.1 X
    Track quality 100.0 %
    Copy CRC 9B1385A3
    Accurately ripped (confidence 2)  [C402CCB2]  (AR v2)
    Copy OK
Track 22
    Filename E:Ministry Of Sound Anthems Sound Of DubstepMinistry Of Sound Anthems Sound Of Dubstep (Disc 1) (Mixed By Calvertron)22 Bad (Featt. Messinian).wav
    Peak level 99.4 %
    Extraction speed 3.5 X
    Track quality 99.9 %
    Copy CRC 7C1EA4C1
    Accurately ripped (confidence 2)  [FA4C5635]  (AR v2)
    Copy OK
Track 23
    Filename E:Ministry Of Sound Anthems Sound Of DubstepMinistry Of Sound Anthems Sound Of Dubstep (Disc 1) (Mixed By Calvertron)23 When The Rain Is Gone (Delta Heavy Remix).wav
    Peak level 99.4 %
    Extraction speed 4.6 X
    Track quality 100.0 %
    Copy CRC DA86104A
    Accurately ripped (confidence 2)  [8918988D]  (AR v2)
    Copy OK
Track 24
    Filename E:Ministry Of Sound Anthems Sound Of DubstepMinistry Of Sound Anthems Sound Of Dubstep (Disc 1) (Mixed By Calvertron)24 Abyss.wav
    Peak level 99.4 %
    Extraction speed 4.3 X
    Track quality 100.0 %
    Copy CRC E26AF769
    Accurately ripped (confidence 2)  [58E1948F]  (AR v2)
    Copy OK
Track 25
    Filename E:Ministry Of Sound Anthems Sound Of DubstepMinistry Of Sound Anthems Sound Of Dubstep (Disc 1) (Mixed By Calvertron)25 Wile Out (Feat. Ms.Dynamite).wav
    Peak level 99.4 %
    Extraction speed 4.8 X
    Track quality 100.0 %
    Copy CRC B4F32DBB
    Accurately ripped (confidence 2)  [8F70D389]  (AR v2)
    Copy OK
Track 26
    Filename E:Ministry Of Sound Anthems Sound Of DubstepMinistry Of Sound Anthems Sound Of Dubstep (Disc 1) (Mixed By Calvertron)26 Rattle (Candyland Remix).wav
    Peak level 99.4 %
    Extraction speed 4.8 X
    Track quality 100.0 %
    Copy CRC ECE2DE26
    Accurately ripped (confidence 2)  [A12E70FE]  (AR v2)
    Copy OK
Track 27
    Filename E:Ministry Of Sound Anthems Sound Of DubstepMinistry Of Sound Anthems Sound Of Dubstep (Disc 1) (Mixed By Calvertron)27 One Click Headshot.wav
    Peak level 99.4 %
    Extraction speed 2.9 X
    Track quality 99.9 %
    Copy CRC FCA0A259
    Accurately ripped (confidence 2)  [E16E6BBE]  (AR v2)
    Copy OK
Track 28
    Filename E:Ministry Of Sound Anthems Sound Of DubstepMinistry Of Sound Anthems Sound Of Dubstep (Disc 1) (Mixed By Calvertron)28 Say Nothing (TC Remix).wav
    Peak level 99.4 %
    Extraction speed 4.2 X
    Track quality 100.0 %
    Copy CRC BEEB8DB2
    Accurately ripped (confidence 2)  [8FEB35E4]  (AR v2)
    Copy OK
All tracks accurately ripped
No errors occurred
End of status report
CUETools DB Plugin V2.1.6
[CTDB TOCID: ZYvrlreNJLAk2QZkXALYS46bmOA-] found
Submit result: ZYvrlreNJLAk2QZkXALYS46bmOA- has been confirmed
Track | CTDB Status
 1   | (6/6) Accurately ripped
 2   | (6/6) Accurately ripped
 3   | (6/6) Accurately ripped
 4   | (6/6) Accurately ripped
 5   | (6/6) Accurately ripped
 6   | (6/6) Accurately ripped
 7   | (6/6) Accurately ripped
 8   | (6/6) Accurately ripped
 9   | (6/6) Accurately ripped
10   | (6/6) Accurately ripped
11   | (6/6) Accurately ripped
12   | (6/6) Accurately ripped
13   | (6/6) Accurately ripped
14   | (6/6) Accurately ripped
15   | (6/6) Accurately ripped
16   | (6/6) Accurately ripped
17   | (6/6) Accurately ripped
18   | (6/6) Accurately ripped
19   | (6/6) Accurately ripped
20   | (6/6) Accurately ripped
21   | (6/6) Accurately ripped
22   | (6/6) Accurately ripped
23   | (6/6) Accurately ripped
24   | (6/6) Accurately ripped
25   | (6/6) Accurately ripped
26   | (6/6) Accurately ripped
27   | (6/6) Accurately ripped
28   | (6/6) Accurately ripped
==== Log checksum 3B00927C7AA3FC0D25DA99BF20EE2DD030EC4B032227862B646B1E5A23E310D3 ====
EAC Log: Disc 2
Exact Audio Copy V1.3 from 2. September 2016
EAC extraction logfile from 6. November 2019, 22:09
Various Artists / Ministry Of Sound Anthems Sound Of Dubstep (Disc 2) (Mixed By Filth Collins)
Used drive  : Optiarc DVD RW AD-7740H   Adapter: 1  ID: 0
Read mode               : Secure
Utilize accurate stream : Yes
Defeat audio cache      : Yes
Make use of C2 pointers : No
Read offset correction                      : 48
Overread into Lead-In and Lead-Out          : No
Fill up missing offset samples with silence : Yes
Delete leading and trailing silent blocks   : No
Null samples used in CRC calculations       : Yes
Used interface                              : Native Win32 interface for Win NT & 2000
Gap handling                                : Appended to previous track
Used output format              : User Defined Encoder
Selected bitrate                : 1024 kBit/s
Quality                         : High
Add ID3 tag                     : No
Command line compressor         : C:Program Files (x86)Exact Audio CopyFlacflac.exe
Additional command line options : -8 -V -T "ARTIST=%artist%" -T "TITLE=%title%" -T "ALBUM=%albumtitle%" -T "DATE=%year%" -T "TRACKNUMBER=%tracknr%" -T "GENRE=%genre%" -T "PERFORMER=%albuminterpret%" -T "COMPOSER=%composer%" %haslyrics%--tag-from-file=LYRICS="%lyricsfile%"%haslyrics% -T "ALBUMARTIST=%albumartist%" -T "DISCNUMBER=%cdnumber%" -T "TOTALDISCS=%totalcds%" -T "TOTALTRACKS=%numtracks%" -T "COMMENT=%comment%" %source% -o %dest%
TOC of the extracted CD
    Track |   Start  |  Length  | Start sector | End sector
   -
       1  |  0:00.00 |  1:51.31 |         0    |     8355  
       2  |  1:51.31 |  2:58.23 |      8356    |    21728  
       3  |  4:49.54 |  2:17.10 |     21729    |    32013  
       4  |  7:06.64 |  2:58.23 |     32014    |    45386  
       5  | 10:05.12 |  2:44.43 |     45387    |    57729  
       6  | 12:49.55 |  2:17.11 |     57730    |    68015  
       7  | 15:06.66 |  1:49.53 |     68016    |    76243  
       8  | 16:56.44 |  2:17.11 |     76244    |    86529  
       9  | 19:13.55 |  1:49.53 |     86530    |    94757  
      10  | 21:03.33 |  4:20.41 |     94758    |   114298  
      11  | 25:23.74 |  2:44.43 |    114299    |   126641  
      12  | 28:08.42 |  1:36.00 |    126642    |   133841  
      13  | 29:44.42 |  2:29.11 |    133842    |   145027  
      14  | 32:13.53 |  2:31.55 |    145028    |   156407  
      15  | 34:45.33 |  3:54.01 |    156408    |   173958  
      16  | 38:39.34 |  2:03.30 |    173959    |   183213  
      17  | 40:42.64 |  4:54.64 |    183214    |   205327  
      18  | 45:37.53 |  1:49.32 |    205328    |   213534  
      19  | 47:27.10 |  3:50.53 |    213535    |   230837  
      20  | 51:17.63 |  1:18.25 |    230838    |   236712  
      21  | 52:36.13 |  1:22.21 |    236713    |   242883  
      22  | 53:58.34 |  1:49.54 |    242884    |   251112  
      23  | 55:48.13 |  1:22.22 |    251113    |   257284  
      24  | 57:10.35 |  2:17.44 |    257285    |   267603  
      25  | 59:28.04 |  1:45.74 |    267604    |   275552  
      26  | 61:14.03 |  2:20.32 |    275553    |   286084  
      27  | 63:34.35 |  1:49.53 |    286085    |   294312  
      28  | 65:24.13 |  3:25.50 |    294313    |   309737  
      29  | 68:49.63 |  2:56.07 |    309738    |   322944  
Track  1
    Filename E:Ministry Of Sound Anthems Sound Of DubstepMinistry Of Sound Anthems Sound Of Dubstep (Disc 2) (Mixed By Filth Collins)1 My World (Brillz Remix).wav
    Pre-gap length  0:00:02.00
    Peak level 99.4 %
    Extraction speed 1.9 X
    Track quality 100.0 %
    Copy CRC 3D6781C5
    Accurately ripped (confidence 2)  [5941941D]  (AR v2)
    Copy OK
Track  2
    Filename E:Ministry Of Sound Anthems Sound Of DubstepMinistry Of Sound Anthems Sound Of Dubstep (Disc 2) (Mixed By Filth Collins)2 Make My Whole World.wav
    Peak level 99.4 %
    Extraction speed 1.6 X
    Track quality 99.9 %
    Copy CRC 0D74DBBD
    Accurately ripped (confidence 2)  [829D092E]  (AR v2)
    Copy OK
Track  3
    Filename E:Ministry Of Sound Anthems Sound Of DubstepMinistry Of Sound Anthems Sound Of Dubstep (Disc 2) (Mixed By Filth Collins)3 I Can't Stop.wav
    Peak level 99.4 %
    Extraction speed 1.5 X
    Track quality 99.9 %
    Copy CRC FB66E5D0
    Accurately ripped (confidence 2)  [3498CBC3]  (AR v2)
    Copy OK
Track  4
    Filename E:Ministry Of Sound Anthems Sound Of DubstepMinistry Of Sound Anthems Sound Of Dubstep (Disc 2) (Mixed By Filth Collins)4 Take Over Control (Feat. Eva Simons) (Adam F Remix).wav
    Peak level 99.4 %
    Extraction speed 1.8 X
    Track quality 99.9 %
    Copy CRC 032F84AA
    Accurately ripped (confidence 2)  [F04DB1B8]  (AR v2)
    Copy OK
Track  5
    Filename E:Ministry Of Sound Anthems Sound Of DubstepMinistry Of Sound Anthems Sound Of Dubstep (Disc 2) (Mixed By Filth Collins)5 Through The Night (Feat. Tom Cane) (501 Remix).wav
    Peak level 99.4 %
    Extraction speed 2.8 X
    Track quality 100.0 %
    Copy CRC BD0DCDF1
    Accurately ripped (confidence 2)  [4D6C759D]  (AR v2)
    Copy OK
Track  6
    Filename E:Ministry Of Sound Anthems Sound Of DubstepMinistry Of Sound Anthems Sound Of Dubstep (Disc 2) (Mixed By Filth Collins)6 Universal.wav
    Peak level 99.4 %
    Extraction speed 2.8 X
    Track quality 100.0 %
    Copy CRC 2561FAF3
    Accurately ripped (confidence 2)  [430BE362]  (AR v2)
    Copy OK
Track  7
    Filename E:Ministry Of Sound Anthems Sound Of DubstepMinistry Of Sound Anthems Sound Of Dubstep (Disc 2) (Mixed By Filth Collins)7 Bomb Bass.wav
    Peak level 99.4 %
    Extraction speed 2.8 X
    Track quality 100.0 %
    Copy CRC 1B61714D
    Accurately ripped (confidence 2)  [85F9B87A]  (AR v2)
    Copy OK
Track  8
    Filename E:Ministry Of Sound Anthems Sound Of DubstepMinistry Of Sound Anthems Sound Of Dubstep (Disc 2) (Mixed By Filth Collins)8 Sir Rock A Lot.wav
    Peak level 99.4 %
    Extraction speed 3.0 X
    Track quality 100.0 %
    Copy CRC 4BE08E7D
    Accurately ripped (confidence 2)  [79F8AE77]  (AR v2)
    Copy OK
Track  9
    Filename E:Ministry Of Sound Anthems Sound Of DubstepMinistry Of Sound Anthems Sound Of Dubstep (Disc 2) (Mixed By Filth Collins)9 Fatboy Riddim.wav
    Peak level 99.4 %
    Extraction speed 3.0 X
    Track quality 100.0 %
    Copy CRC 1A28918B
    Accurately ripped (confidence 2)  [9DA30607]  (AR v2)
    Copy OK
Track 10
    Filename E:Ministry Of Sound Anthems Sound Of DubstepMinistry Of Sound Anthems Sound Of Dubstep (Disc 2) (Mixed By Filth Collins)10 You Need Me, I Don't Need You (Gemini Remix).wav
    Peak level 99.4 %
    Extraction speed 3.6 X
    Track quality 100.0 %
    Copy CRC 8F6D31A2
    Accurately ripped (confidence 2)  [E77F8F0C]  (AR v2)
    Copy OK
Track 11
    Filename E:Ministry Of Sound Anthems Sound Of DubstepMinistry Of Sound Anthems Sound Of Dubstep (Disc 2) (Mixed By Filth Collins)11 Bass Salt.wav
    Peak level 99.4 %
    Extraction speed 3.5 X
    Track quality 100.0 %
    Copy CRC E272EEAF
    Accurately ripped (confidence 2)  [95D5E25D]  (AR v2)
    Copy OK
Track 12
    Filename E:Ministry Of Sound Anthems Sound Of DubstepMinistry Of Sound Anthems Sound Of Dubstep (Disc 2) (Mixed By Filth Collins)12 Let Yourself Go.wav
    Peak level 99.4 %
    Extraction speed 3.2 X
    Track quality 100.0 %
    Copy CRC 132C3C57
    Accurately ripped (confidence 2)  [D54020EA]  (AR v2)
    Copy OK
Track 13
    Filename E:Ministry Of Sound Anthems Sound Of DubstepMinistry Of Sound Anthems Sound Of Dubstep (Disc 2) (Mixed By Filth Collins)13 Let You Down.wav
    Peak level 99.4 %
    Extraction speed 3.6 X
    Track quality 100.0 %
    Copy CRC 22CC9145
    Accurately ripped (confidence 2)  [0483907C]  (AR v2)
    Copy OK
Track 14
    Filename E:Ministry Of Sound Anthems Sound Of DubstepMinistry Of Sound Anthems Sound Of Dubstep (Disc 2) (Mixed By Filth Collins)14 Night.wav
    Peak level 99.4 %
    Extraction speed 2.4 X
    Track quality 99.9 %
    Copy CRC 28454C67
    Accurately ripped (confidence 2)  [E93D31BA]  (AR v2)
    Copy OK
Track 15
    Filename E:Ministry Of Sound Anthems Sound Of DubstepMinistry Of Sound Anthems Sound Of Dubstep (Disc 2) (Mixed By Filth Collins)15 Ghosts N Stuff (Feat. Rob Swire) (Nero Remix).wav
    Peak level 99.4 %
    Extraction speed 2.9 X
    Track quality 99.9 %
    Copy CRC F54C60BD
    Accurately ripped (confidence 2)  [3D3ADFBE]  (AR v2)
    Copy OK
Track 16
    Filename E:Ministry Of Sound Anthems Sound Of DubstepMinistry Of Sound Anthems Sound Of Dubstep (Disc 2) (Mixed By Filth Collins)16 We've Only Just Begun (Feat. Ester Dean) (Thunderskank & Trufix Remix).wav
    Peak level 99.4 %
    Extraction speed 3.6 X
    Track quality 100.0 %
    Copy CRC B061486D
    Accurately ripped (confidence 2)  [E17FAB07]  (AR v2)
    Copy OK
Track 17
    Filename E:Ministry Of Sound Anthems Sound Of DubstepMinistry Of Sound Anthems Sound Of Dubstep (Disc 2) (Mixed By Filth Collins)17 Girly.wav
    Peak level 99.4 %
    Extraction speed 4.5 X
    Track quality 100.0 %
    Copy CRC 9123B66C
    Accurately ripped (confidence 2)  [8994C897]  (AR v2)
    Copy OK
Track 18
    Filename E:Ministry Of Sound Anthems Sound Of DubstepMinistry Of Sound Anthems Sound Of Dubstep (Disc 2) (Mixed By Filth Collins)18 Louder (Doctor P & Flux Pavillion Remix).wav
    Peak level 99.4 %
    Extraction speed 3.8 X
    Track quality 100.0 %
    Copy CRC 1FC74B3C
    Accurately ripped (confidence 2)  [450E550B]  (AR v2)
    Copy OK
Track 19
    Filename E:Ministry Of Sound Anthems Sound Of DubstepMinistry Of Sound Anthems Sound Of Dubstep (Disc 2) (Mixed By Filth Collins)19 Galaxies & Stars (Feat. Ce'cile).wav
    Peak level 99.4 %
    Extraction speed 3.2 X
    Track quality 99.9 %
    Copy CRC 5CB9DF6E
    Accurately ripped (confidence 2)  [C1EAFB29]  (AR v2)
    Copy OK
Track 20
    Filename E:Ministry Of Sound Anthems Sound Of DubstepMinistry Of Sound Anthems Sound Of Dubstep (Disc 2) (Mixed By Filth Collins)20 The Matrix.wav
    Peak level 99.4 %
    Extraction speed 1.8 X
    Track quality 99.8 %
    Copy CRC C3ED35EB
    Accurately ripped (confidence 2)  [BA654E65]  (AR v2)
    Copy OK
Track 21
    Filename E:Ministry Of Sound Anthems Sound Of DubstepMinistry Of Sound Anthems Sound Of Dubstep (Disc 2) (Mixed By Filth Collins)21 Turn Up (Feat. DJ Carnage).wav
    Peak level 99.4 %
    Extraction speed 3.5 X
    Track quality 100.0 %
    Copy CRC D4798843
    Accurately ripped (confidence 2)  [7BBB31D1]  (AR v2)
    Copy OK
Track 22
    Filename E:Ministry Of Sound Anthems Sound Of DubstepMinistry Of Sound Anthems Sound Of Dubstep (Disc 2) (Mixed By Filth Collins)22 I've Been Waiting.wav
    Peak level 99.4 %
    Extraction speed 4.1 X
    Track quality 100.0 %
    Copy CRC 031BC601
    Accurately ripped (confidence 2)  [51591F1C]  (AR v2)
    Copy OK
Track 23
    Filename E:Ministry Of Sound Anthems Sound Of DubstepMinistry Of Sound Anthems Sound Of Dubstep (Disc 2) (Mixed By Filth Collins)23 Molly (Borgore Suck My Tit Remix).wav
    Peak level 99.4 %
    Extraction speed 2.0 X
    Track quality 99.8 %
    Copy CRC AD217AEC
    Accurately ripped (confidence 2)  [B207B703]  (AR v2)
    Copy OK
Track 24
    Filename E:Ministry Of Sound Anthems Sound Of DubstepMinistry Of Sound Anthems Sound Of Dubstep (Disc 2) (Mixed By Filth Collins)24 Show Me A Sign.wav
    Peak level 99.4 %
    Extraction speed 4.2 X
    Track quality 100.0 %
    Copy CRC ED15DA46
    Accurately ripped (confidence 2)  [6F092809]  (AR v2)
    Copy OK
Track 25
    Filename E:Ministry Of Sound Anthems Sound Of DubstepMinistry Of Sound Anthems Sound Of Dubstep (Disc 2) (Mixed By Filth Collins)25 Time And Space.wav
    Peak level 99.4 %
    Extraction speed 4.3 X
    Track quality 100.0 %
    Copy CRC 6802D835
    Accurately ripped (confidence 2)  [ADDF2B8D]  (AR v2)
    Copy OK
Track 26
    Filename E:Ministry Of Sound Anthems Sound Of DubstepMinistry Of Sound Anthems Sound Of Dubstep (Disc 2) (Mixed By Filth Collins)26 Levels (VIP Mix).wav
    Peak level 99.4 %
    Extraction speed 2.8 X
    Track quality 99.9 %
    Copy CRC C83EAC34
    Accurately ripped (confidence 2)  [86095C5E]  (AR v2)
    Copy OK
Track 27
    Filename E:Ministry Of Sound Anthems Sound Of DubstepMinistry Of Sound Anthems Sound Of Dubstep (Disc 2) (Mixed By Filth Collins)27 Death Ray.wav
    Peak level 99.4 %
    Extraction speed 4.1 X
    Track quality 100.0 %
    Copy CRC 7A343C34
    Accurately ripped (confidence 2)  [CB41F9E2]  (AR v2)
    Copy OK
Track 28
    Filename E:Ministry Of Sound Anthems Sound Of DubstepMinistry Of Sound Anthems Sound Of Dubstep (Disc 2) (Mixed By Filth Collins)28 Cinema (Feat. Gary Go) (Skrillex Remix).wav
    Peak level 99.4 %
    Extraction speed 5.0 X
    Track quality 100.0 %
    Copy CRC 6C6E1720
    Accurately ripped (confidence 2)  [F56B417D]  (AR v2)
    Copy OK
Track 29
    Filename E:Ministry Of Sound Anthems Sound Of DubstepMinistry Of Sound Anthems Sound Of Dubstep (Disc 2) (Mixed By Filth Collins)29 Household Goods (Zeds Dead Remix).wav
    Peak level 99.4 %
    Extraction speed 5.0 X
    Track quality 100.0 %
    Copy CRC 7FD922AB
    Accurately ripped (confidence 2)  [9D3AC321]  (AR v2)
    Copy OK
All tracks accurately ripped
No errors occurred
End of status report
CUETools DB Plugin V2.1.6
[CTDB TOCID: 7_Crrr_SVcN1g9cVL6ljZeScHYc-] found
Submit result: 7_Crrr_SVcN1g9cVL6ljZeScHYc- has been confirmed
Track | CTDB Status
 1   | (7/7) Accurately ripped
 2   | (7/7) Accurately ripped
 3   | (7/7) Accurately ripped
 4   | (7/7) Accurately ripped
 5   | (7/7) Accurately ripped
 6   | (7/7) Accurately ripped
 7   | (7/7) Accurately ripped
 8   | (7/7) Accurately ripped
 9   | (7/7) Accurately ripped
10   | (7/7) Accurately ripped
11   | (7/7) Accurately ripped
12   | (7/7) Accurately ripped
13   | (7/7) Accurately ripped
14   | (7/7) Accurately ripped
15   | (7/7) Accurately ripped
16   | (7/7) Accurately ripped
17   | (7/7) Accurately ripped
18   | (7/7) Accurately ripped
19   | (7/7) Accurately ripped
20   | (7/7) Accurately ripped
21   | (7/7) Accurately ripped
22   | (7/7) Accurately ripped
23   | (7/7) Accurately ripped
24   | (7/7) Accurately ripped
25   | (7/7) Accurately ripped
26   | (7/7) Accurately ripped
27   | (7/7) Accurately ripped
28   | (7/7) Accurately ripped
29   | (7/7) Accurately ripped
==== Log checksum 60A6B4804C7C70DA25703B30305723E0CB50EFFFFB087EB9FFDB1CE21E5E85D9 ====

Related music:
The Best Of - Booker T And The MGs - 1984 FLAC download The Best Of - Booker T And The MGs - 1984 FLAC
Lossless
English
219.5 MB
4.7
/images/5/2/the-best-of-booker-t-and-the-mgs-1984-flac-.jpg
Gigi Dagostino - Lamour Toujours, Flac +M3U download Gigi Dagostino - Lamour Toujours, Flac +M3U
Lossless
Italian
834.8 MB
4.8
/images/5/3/gigi-dagostino-lamour-toujours2c-flac-2bm3u.jpg
Helmet Strap It On 1992 FLAC+CUE download Helmet Strap It On 1992 FLAC+CUE
Lossless
English
215.4 MB
4.8
/images/5/4/helmet-strap-it-on-1992-flac2bcue-.jpg
Emperor - Anthems To The Welkin At Dusk - 1997 FLAC download Emperor - Anthems To The Welkin At Dusk - 1997 FLAC
Lossless
English
400.1 MB
4.5
/images/5/8/emperor-anthems-to-the-welkin-at-dusk-1997-flac-.jpg
Ministry The Land of Rape and Honey 1988 FLAC+CUE download Ministry The Land of Rape and Honey 1988 FLAC+CUE
Lossless
English
284.8 MB
4.8
/images/5/5/ministry-the-land-of-rape-and-honey-1988-flac2bcue-.jpg
The Great Deceiver Jet Black Art 2000 FLAC+CUE download The Great Deceiver Jet Black Art 2000 FLAC+CUE
Lossless
English
126.9 MB
4.9
/images/5/5/the-great-deceiver-jet-black-art-2000-flac2bcue-.jpg
Ministry Filth Pig 1995 FLAC+CUE download Ministry Filth Pig 1995 FLAC+CUE
Lossless
English
419.5 MB
4.4
/images/5/7/ministry-filth-pig-1995-flac2bcue-.jpg
Fat 1997 FLAC+CUE RLG download Fat 1997 FLAC+CUE RLG
Lossless
English
299.3 MB
4.8
/images/5/5/fat-1997-flac2bcue-rlg.jpg
Melvins Colossus of Destiny 2001 FLAC+CUE download Melvins Colossus of Destiny 2001 FLAC+CUE
Lossless
English
327.8 MB
4.6
/images/5/5/melvins-colossus-of-destiny-2001-flac2bcue-.jpg