Files 42316
» » Kasabian - Empire 24bit Hi-Res 2006
Language: English
Size: 784.0 MB
Votes: 593
Downloaded: 29
Category: Lossless
Format: MP3, FLAC
4.3

File list

Kasabian - Empire (2006) [24bit Hi-Res]
  • 01 - Empire.flac (47.1 MB)
  • 02 - Shoot The Runner.flac (42.1 MB)
  • 03 - Last Trip (In Flight).flac (35.5 MB)
  • 04 - Me Plus One.flac (30.0 MB)
  • 05 - Sun Rise Light Flies.flac (50.0 MB)
  • 06 - Apnoea.flac (21.3 MB)
  • 07 - By My Side.flac (50.1 MB)
  • 08 - Stuntman.flac (61.5 MB)
  • 09 - Seek & Destroy.flac (26.7 MB)
  • 10 - British Legion.flac (34.2 MB)
  • 11 - The Doberman.flac (65.8 MB)
  • 12 - Shoot The Runner (Live From Xfm).flac (64.8 MB)
  • 13 - Reason Is Treason (Live From Xfm).flac (60.4 MB)
  • 14 - Empire (Live From Xfm).flac (49.0 MB)
  • 15 - The Doberman (Live From Xfm).flac (70.0 MB)
  • 16 - L.S.F. (Live From Xfm).flac (75.2 MB)
  • [TGx]Downloaded from torrentgalaxy.org .txt (0.6 KB)
  • cover.jpg (173.7 KB)
  • dr14.txt (1.7 KB)
  • Torrent Downloaded from Glodls.to.txt (0.2 KB)
  • Torrent downloaded from limetorrents.cc.txt (0.1 KB)
  • Torrent Downloaded from worldwidetorrents.to (0.1 KB)

Sampling rate: 44100 Hz Average bitrate: 1665kbs Bits per sample: 24 bit.

Empire" is a song by English rock band Kasabian and is the title track for their second album, Empire. It was released 24 July 2006 as the lead single from that album on CD (see 2006 in British music). The single became popular immediately, entering the UK Singles Chart at its peak position, making it the band's third UK Top 10 single. It was still in the charts in 2007, at before dropping off later in January. On 21 August 2006, 10" and DVD versions of the single were released.

Empire is the second album by British rock band Kasabian, released in August 2006. The album went on to No. 1 in the UK Albums Chart upon its release and was preceded by the release of new single "Empire" on 24 July 2006. The album was recorded over two weeks after touring with Oasis. According to Tom Meighan in an interview on the album with the NME in early 2006, "Empire" is a word used by the band to describe something that is good. As of 3 May 2017 the album has sold over 800,000 copies in the band's home country of the U. .

Empire - Студийный альбом от Kasabian. Вышел 28 августа 2006г. Kasabian Narcotic Farm II (high quality). Kasabian - Runaway (Live From The Little Noise Sessions) - Good Audio. В альбом вошло 52 треков. Продолжительность альбома: 03:19:51. Kasabian - Caught In Her Mind (Paradise Remix).

Kasabian's official music video for 'Empire'. Too much information Well I said you're good for nothing Come on to the back I said your needles count for something Guess I'd better sell you now Guess I'd be around. it/this siteKasabian?IQid KasEmp As featured on Empire  . Singing for your questions But you've stolen all of my answers Too much entertainment drove and thats not all the colour Tell me that you've seen a ghost I'll tell you what to fear the most.

24bit Hi-Res Flac Music. Film & music shop.

Kasabian - Empire (2006). Rock Alternative Indie FLAC, APE HD & Vinyl. Tracklist: 01. Kasabian - Empire 02. Kasabian - Shoot The Runner 03. Kasabian - Last Trip (In Flight) 04.

Empire is the first song on Kasabian’s second album, ‘Empire’ released August 2006

Produced by Sergio Pizzorno, Christopher Karloff & Jim Abbiss. Singing for your questions But you've stolen all of my answers Too much entertainment drove And that's not all the color Tell me that you've seen a ghost I'll tell you what to fear the most. Empire is the first song on Kasabian’s second album, ‘Empire’ released August 2006. The album went to number 1 in the UK album Chart when it was released.


Quality-Lossless
Release-2006
Duration-01:05:40
File Size-822.0 MB
Genre-Rock
Cover Size-1280px

Analyzed: Empire / Artist: Kasabian
DR Peak RMS Duration Title [codec]
DR6 -0.00 dB -8.74 dB 3:52 01 - Empire [flac]
DR6 -0.00 dB -7.99 dB 3:27 02 - Shoot The Runner [flac]
DR6 -0.00 dB -7.87 dB 2:52 03 - Last Trip (In Flight) [flac]
DR7 -0.00 dB -8.84 dB 2:28 04 - Me Plus One [flac]
DR6 -0.00 dB -8.43 dB 4:08 05 - Sun Rise Light Flies [flac]
DR6 -0.00 dB -7.42 dB 1:44 06 - Apnoea [flac]
DR6 -0.00 dB -9.12 dB 4:13 07 - By My Side [flac]
DR6 -0.00 dB -9.74 dB 5:17 08 - Stuntman [flac]
DR7 -0.00 dB -8.22 dB 2:14 09 - Seek & Destroy [flac]
DR8 -0.00 dB -13.26 dB 3:18 10 - British Legion [flac]
DR7 -0.00 dB -10.68 dB 5:33 11 - The Doberman [flac]
DR7 -0.00 dB -8.27 dB 5:20 12 - Shoot The Runner (Live From Xfm) [flac]
DR7 -0.00 dB -8.06 dB 4:51 13 - Reason Is Treason (Live From Xfm) [flac]
DR7 -0.00 dB -7.84 dB 4:00 14 - Empire (Live From Xfm) [flac]
DR8 -0.00 dB -9.97 dB 5:51 15 - The Doberman (Live From Xfm) [flac]
DR7 -0.00 dB -9.77 dB 6:25 16 - L.S.F. (Live From Xfm) [flac]
Number of files: 16
Official DR value: DR7
Sampling rate: 44100 Hz
Average bitrate: 1665kbs
Bits per sample: 24 bit

Related music:
Keane - Under The Iron Sea Flac 2006 download Keane - Under The Iron Sea Flac 2006
Lossless
English
361.5 MB
4.1
/images/5/5/keane-under-the-iron-sea-flac-2006.jpg
Empire Empire -You Will Eventually Be Forgotten-CD-FLAC-2014-FORSAKEN I Was A Lonely Estate download Empire Empire -You Will Eventually Be Forgotten-CD-FLAC-2014-FORSAKEN I Was A Lonely Estate
Lossless
English
250.5 MB
4.2
/images/5/5/empire-empire-you-will-eventually-be-forgotten-cd-flac-2014-forsaken-i-was-a-lonely-estate.jpg
Kasabian - For Crying Out Loud Edition 2017 download Kasabian - For Crying Out Loud Edition 2017
MP3
English
296.4 MB
4.3
/images/5/8/kasabian-for-crying-out-loud-edition-2017.jpg
Queensryche - Empire - Remastered 20th Anniversary Edition download Queensryche - Empire - Remastered 20th Anniversary Edition
Lossless
English
573.6 MB
4.7
/images/5/7/queensryche-empire-remastered-20th-anniversary-edition.jpg
Miss Platnum - The Opera Flac 2019 download Miss Platnum - The Opera Flac 2019
Lossless
English
230.1 MB
4.9
/images/5/8/miss-platnum-the-opera-flac-2019.jpg
Erasure - Union Street 88.2hz-24bit 2006 download Erasure - Union Street 88.2hz-24bit 2006
Lossless
English
924.7 MB
4.2
/images/5/2/erasure-union-street-882hz-24bit-2006.jpg
Fleetwood Mac - Live 1980 24bit FLAC Beolab1700 2013 download Fleetwood Mac - Live 1980 24bit FLAC Beolab1700 2013
Lossless
English
1.1 GB
4.7
/images/5/5/fleetwood-mac-live-1980-24bit-flac-beolab1700-2013.jpg
Evanescence - The Open Door Flac 2006 download Evanescence - The Open Door Flac 2006
Lossless
English
445.9 MB
4.6
/images/5/4/evanescence-the-open-door-flac-2006.jpg
Kasabian - For Crying Out Loud FLAC CD-Rip Edition 2017 download Kasabian - For Crying Out Loud FLAC CD-Rip Edition 2017
Lossless
English
933.3 MB
4.8
/images/5/0/kasabian-for-crying-out-loud-flac-cd-rip-edition-2017.jpg