Files 42316
» » Skunk Anansie - An Acoustic Skunk Anansie - Live in London FLAC+H264 by assamestar
Language: English
Size: 1.4 GB
Votes: 239
Downloaded: 37
Category: Lossless
Format: MP3, FLAC
4.5

File list

  • 17 - Skunk Anansie - Twisted (Everyday hurts).flac (29.7 MB)
  • 16 - Skunk Anansie - Hedonism (Just because you feel good).flac (24.4 MB)
  • 15 - Skunk Anansie - Squander.flac (28.8 MB)
  • 14 - Skunk Anansie - My ugly boy.flac (23.4 MB)
  • 18 - Skunk Anansie - Charlie big potato.flac (36.3 MB)
  • An Acoustic Skunk Anansie - Live in London.mp4 (928.4 MB)
  • cover_f.jpg (58.7 KB)
  • cover_b.jpg (57.2 KB)
  • Skunk Anansie - An Acoustic Skunk Anansie - Live in London.m3u (3.1 KB)
  • Media.nfo (54.5 KB)
  • 13 - Skunk Anansie - Weak.flac (24.4 MB)
  • 12 - Skunk Anansie - You do something to me.flac (25.5 MB)
  • 05 - Skunk Anansie - Charity.flac (30.0 MB)
  • 04 - Skunk Anansie - I hope you get to meet your hero.flac (24.9 MB)
  • 03 - Skunk Anansie - Infidelity (Only you).flac (34.9 MB)
  • 02 - Skunk Anansie - Because of you.flac (30.5 MB)
  • 06 - Skunk Anansie - 100 ways to be a good girl.flac (27.1 MB)
  • 07 - Skunk Anansie - I believed in you.flac (24.4 MB)
  • 11 - Skunk Anansie - God loves only you.flac (27.7 MB)
  • 10 - Skunk Anansie - I will break you.flac (27.1 MB)
  • 09 - Skunk Anansie - You saved me.flac (21.7 MB)
  • 08 - Skunk Anansie - Secretly.flac (30.4 MB)
  • 01 - Skunk Anansie - Brazen (Weep).flac (25.0 MB)

2013 - Skunk Anansie - An Acoustic Skunk Anansie: Live In London. Skunk Anansie-My Ugly Boy (Die Grosse TV Total Crash Car Challenge 2010)-x264-2010-GRMV.

2013 - Skunk Anansie - An Acoustic Skunk Anansie: Live In London. anansie-my ugly boy die grosse tv total crash car challenge 2010 -x264-2010-grmv mkv thumbs 2010 10 11 15 56 10.

british acoustic skunk anansie skin. Uploaded: 2013-11-24 14:13:33 GMT. By: FLAC-er.

Charlie Big Potato Источник Skunk Anansie – Live In London An. .MediaInfo, x264Logx264Log. In London An Acoustic.

Charlie Big Potato Источник Skunk Anansie – Live In London An Acoustic Качество: BDRip Разрешение видео/развертка: 720p Контейнер: MKV Видео кодек: . 64 Аудио кодек: DTS, FLAC Видео: AVC, 1280x720 (16:9), 2. 76 fps, 4 000 Kbps Аудио DTS, 4. KHz, 6 ch, 1 510 Kbps Аудио FLAC, 4. KHz, 2 ch, 894 kbps.

An Acoustic Skunk Anansie - Live in London - Skunk Anansie. Открывайте новую музыку каждый день. Лента с персональными рекомендациями и музыкальными новинками, радио, подборки на любой вкус, удобное управление своей коллекцией. Миллионы композиций бесплатно и в хорошем качестве.

Skunk Anansie - An Acoustic Skunk Anansie - Live in London [FLAC+H264]
Etichetta.....................: Boogoyamma LTD licensed to Carosello Records
Formato.......................: CD, Album, DVD
Nazione.......................: United Kingdom
Rilascio......................: 2013
Genere........................: Rock, Pop
Stile.........................: Alternative rock
Barcode and Other Identifiers.: 8034125843275
ID Pubblicazione MusicBrainz..: 6d330263-94e1-4268-b082-3b2fa0ba0b4e
01. Brazen (Weep)..........................: 4:21
02. Because Of You.........................: 4:41
03. Infidelity (Only You)..................: 5:43
04. I Hope You Get To Meet Your Hero.......: 3:46
05. Charity................................: 4:51
06. 100 Ways To Be A Good Girl.............: 4:28
07. I Believed In You......................: 3:26
08. Secretly...............................: 4:51
09. You Saved Me...........................: 3:31
10. I Will Break You.......................: 4:04
11. God Loves Only You.....................: 4:24
12. You Do Something To Me.................: 4:13
13. Weak...................................: 3:36
14. My Ugly Boy............................: 3:24
15. Squander...............................: 4:30
16. Hedonism (Just Because You Feel Good)..: 4:02
17. Twisted (Everyday Hurts)...............: 4:22
18. Charly Big Potato......................: 5:21
DVD Full Concert Performance & Extras
FLAC+H264+NFO+COVER+IDMUSICBRAINZ
---| TNT Village by assamestar |---
General
Complete name : Skunk Anansie - An Acoustic Skunk Anansie - Live in London [2013]/13 - Skunk Anansie - Weak.flac
Format : FLAC
Format/Info : Free Lossless Audio Codec
File size : 24.4 MiB
Duration : 3mn 36s
Overall bit rate mode : Variable
Overall bit rate : 944 Kbps
Album replay gain : -6.55 dB
Album replay gain peak : 0.988983
Album : An Acoustic Skunk Anansie: Live in London
Album/Performer : Skunk Anansie
Part : 1
Part/Total : 1 / 1
Track name : Weak
Track name/Position : 13
Track name/Total : 18 / 18
Performer : Skunk Anansie
Composer : Skin, Cass Lewis, Ace, Robbie France
Producer : Boogoyamma LTD licensed to Carosello Records
Label : 100% Records
Genre : General Alternative Rock
Recorded date : 2013-09-23
ISRC : GB2YG1300029
albumartistsort : Skunk Anansie
releasecountry : GB
asin : B00F29PWF2
media : Digital Media
artistsort : Skunk Anansie
acoustid_id : fd97a38b-f75f-48e6-a246-8041072098e3
musicbrainz_releasegroupid : b0a44a67-d879-4c0c-a761-ea0e9568e907
releasestatus : official
originaldate : 2013-09-23
script : Latn
releasetype : album / live
Audio
Format : FLAC
Format/Info : Free Lossless Audio Codec
Duration : 3mn 36s
Bit rate mode : Variable
Bit rate : 944 Kbps
Channel(s) : 2 channels
Sampling rate : 44.1 KHz
Bit depth : 16 bits
Replay gain : -7.57 dB
Replay gain peak : 0.988647
Stream size : 24.4 MiB (100%)
Writing library : libFLAC 1.2.1 (UTC 2007-09-17)
General
Complete name : Skunk Anansie - An Acoustic Skunk Anansie - Live in London [2013]/18 - Skunk Anansie - Charlie big potato.flac
Format : FLAC
Format/Info : Free Lossless Audio Codec
File size : 36.3 MiB
Duration : 5mn 21s
Overall bit rate mode : Variable
Overall bit rate : 947 Kbps
Album replay gain : -6.55 dB
Album replay gain peak : 0.988983
Album : An Acoustic Skunk Anansie: Live in London
Album/Performer : Skunk Anansie
Part : 1
Part/Total : 1 / 1
Track name : Charlie Big Potato
Track name/Position : 18
Track name/Total : 18 / 18
Performer : Skunk Anansie
Composer : Skin, Cass Lewis, Ace, Mark Richardson
Producer : Boogoyamma LTD licensed to Carosello Records
Label : 100% Records
Genre : General Alternative Rock
Recorded date : 2013-09-23
ISRC : GB2YG1300034
albumartistsort : Skunk Anansie
releasecountry : GB
asin : B00F29PWF2
media : Digital Media
artistsort : Skunk Anansie
acoustid_id : 869dfd89-f796-4d33-bc95-26a6d0d4a75e
musicbrainz_releasegroupid : b0a44a67-d879-4c0c-a761-ea0e9568e907
releasestatus : official
originaldate : 2013-09-23
script : Latn
releasetype : album / live
Audio
Format : FLAC
Format/Info : Free Lossless Audio Codec
Duration : 5mn 21s
Bit rate mode : Variable
Bit rate : 946 Kbps
Channel(s) : 2 channels
Sampling rate : 44.1 KHz
Bit depth : 16 bits
Replay gain : -6.98 dB
Replay gain peak : 0.988739
Stream size : 36.3 MiB (100%)
Writing library : libFLAC 1.2.1 (UTC 2007-09-17)
General
Complete name : Skunk Anansie - An Acoustic Skunk Anansie - Live in London [2013]/cover_b.jpg
Format : JPEG
File size : 57.2 KiB
Image
Format : JPEG
Width : 500 pixels
Height : 450 pixels
Color space : YUV
Chroma subsampling : 4:2:0
Bit depth : 8 bits
Compression mode : Lossy
Stream size : 57.2 KiB (100%)
General
Complete name : Skunk Anansie - An Acoustic Skunk Anansie - Live in London [2013]/An Acoustic Skunk Anansie - Live in London.mp4
Format : MPEG-4
Format profile : Base Media / Version 2
Codec ID : mp42
File size : 928 MiB
Duration : 1h 28mn
Overall bit rate mode : Variable
Overall bit rate : 1 472 Kbps
Encoded date : UTC 2013-11-23 16:50:41
Tagged date : UTC 2013-11-23 17:37:01
Writing application : HandBrake 0.9.9 2013052900
Video
ID : 1
Format : AVC
Format/Info : Advanced Video Codec
Format profile : [email protected]
Format settings, CABAC : Yes
Format settings, ReFrames : 4 frames
Codec ID : avc1
Codec ID/Info : Advanced Video Coding
Duration : 1h 28mn
Bit rate : 1 308 Kbps
Width : 720 pixels
Height : 478 pixels
Display aspect ratio : 16:9
Frame rate mode : Constant
Frame rate : 29.970 fps
Color space : YUV
Chroma subsampling : 4:2:0
Bit depth : 8 bits
Scan type : Progressive
Bits/(Pixel*Frame) : 0.127
Stream size : 824 MiB (89%)
Writing library : x264 core 130 r2273 b3065e6
Encoding settings : cabac=1 / ref=1 / deblock=1:0:0 / analyse=0x1:0x111 / me=hex / subme=2 / psy=1 / psy_rd=1.00:0.00 / mixed_ref=0 / me_range=16 / chroma_me=1 / trellis=0 / 8x8dct=0 / cqm=0 / deadzone=21,11 / fast_pskip=1 / chroma_qp_offset=0 / threads=3 / lookahead_threads=1 / sliced_threads=0 / nr=0 / decimate=1 / interlaced=0 / bluray_compat=0 / constrained_intra=0 / bframes=3 / b_pyramid=2 / b_adapt=1 / b_bias=0 / direct=1 / weightb=1 / open_gop=0 / weightp=1 / keyint=300 / keyint_min=30 / scenecut=40 / intra_refresh=0 / rc_lookahead=10 / rc=crf / mbtree=1 / crf=20.0 / qcomp=0.60 / qpmin=0 / qpmax=69 / qpstep=4 / vbv_maxrate=20000 / vbv_bufsize=25000 / crf_max=0.0 / nal_hrd=none / ip_ratio=1.40 / aq=1:1.00
Encoded date : UTC 2013-11-23 16:50:41
Tagged date : UTC 2013-11-23 17:37:01
Color primaries : BT.601 NTSC
Transfer characteristics : BT.709
Matrix coefficients : BT.601
Audio
ID : 2
Format : AAC
Format/Info : Advanced Audio Codec
Format profile : LC
Codec ID : 40
Duration : 1h 28mn
Bit rate mode : Variable
Bit rate : 160 Kbps
Maximum bit rate : 286 Kbps
Channel(s) : 2 channels
Channel positions : Front: L R
Sampling rate : 48.0 KHz
Compression mode : Lossy
Stream size : 101 MiB (11%)
Language : English
Encoded date : UTC 2013-11-23 16:50:41
Tagged date : UTC 2013-11-23 17:37:00
Menu
ID : 3
Codec ID : text
Duration : 1h 28mn
Encoded date : UTC 2013-11-23 16:50:41
Tagged date : UTC 2013-11-23 17:37:00
00:00:00.000 : Chapter 1
00:01:38.064 : Chapter 2
00:05:58.091 : Chapter 3
00:10:53.886 : Chapter 4
00:16:42.001 : Chapter 5
00:20:47.913 : Chapter 6
00:26:02.227 : Chapter 7
00:30:45.176 : Chapter 8
00:34:26.631 : Chapter 9
00:39:42.113 : Chapter 10
00:44:14.685 : Chapter 11
00:48:45.255 : Chapter 12
00:53:53.396 : Chapter 13
00:57:48.231 : Chapter 14
01:01:26.082 : Chapter 15
01:06:47.403 : Chapter 16
01:11:11.834 : Chapter 17
01:15:21.083 : Chapter 18
01:20:06.701 : Chapter 19
Bit rate mode : VBR
General
Complete name : Skunk Anansie - An Acoustic Skunk Anansie - Live in London [2013]/14 - Skunk Anansie - My ugly boy.flac
Format : FLAC
Format/Info : Free Lossless Audio Codec
File size : 23.4 MiB
Duration : 3mn 24s
Overall bit rate mode : Variable
Overall bit rate : 959 Kbps
Album replay gain : -6.55 dB
Album replay gain peak : 0.988983
Album : An Acoustic Skunk Anansie: Live in London
Album/Performer : Skunk Anansie
Part : 1
Part/Total : 1 / 1
Track name : My Ugly Boy
Track name/Position : 14
Track name/Total : 18 / 18
Performer : Skunk Anansie
Composer : Skin, Cass Lewis, Ace, Mark Richardson
Producer : Boogoyamma LTD licensed to Carosello Records
Label : 100% Records
Genre : General Alternative Rock
Recorded date : 2013-09-23
ISRC : GB2YG1300030
albumartistsort : Skunk Anansie
releasecountry : GB
asin : B00F29PWF2
media : Digital Media
artistsort : Skunk Anansie
acoustid_id : 2ea2ec9c-3b8c-4438-85b5-4a18b9bf3da0
musicbrainz_releasegroupid : b0a44a67-d879-4c0c-a761-ea0e9568e907
releasestatus : official
originaldate : 2013-09-23
script : Latn
releasetype : album / live
Audio
Format : FLAC
Format/Info : Free Lossless Audio Codec
Duration : 3mn 24s
Bit rate mode : Variable
Bit rate : 958 Kbps
Channel(s) : 2 channels
Sampling rate : 44.1 KHz
Bit depth : 16 bits
Replay gain : -7.29 dB
Replay gain peak : 0.988770
Stream size : 23.3 MiB (100%)
Writing library : libFLAC 1.2.1 (UTC 2007-09-17)
General
Complete name : Skunk Anansie - An Acoustic Skunk Anansie - Live in London [2013]/02 - Skunk Anansie - Because of you.flac
Format : FLAC
Format/Info : Free Lossless Audio Codec
File size : 30.5 MiB
Duration : 4mn 41s
Overall bit rate mode : Variable
Overall bit rate : 912 Kbps
Album replay gain : -6.55 dB
Album replay gain peak : 0.988983
Album : An Acoustic Skunk Anansie: Live in London
Album/Performer : Skunk Anansie
Part : 1
Part/Total : 1 / 1
Track name : Because of You
Track name/Position : 2
Track name/Total : 18 / 18
Performer : Skunk Anansie
Composer : Skin, Cass Lewis, Ace, Mark Richardson
Producer : Boogoyamma LTD licensed to Carosello Records
Label : 100% Records
Genre : General Alternative Rock
Recorded date : 2013-09-23
ISRC : GB2YG1300018
albumartistsort : Skunk Anansie
releasecountry : GB
asin : B00F29PWF2
media : Digital Media
artistsort : Skunk Anansie
acoustid_id : b9899019-1845-4bbb-b176-ba4d9eee98d8
musicbrainz_releasegroupid : b0a44a67-d879-4c0c-a761-ea0e9568e907
releasestatus : official
originaldate : 2013-09-23
script : Latn
releasetype : album / live
Audio
Format : FLAC
Format/Info : Free Lossless Audio Codec
Duration : 4mn 41s
Bit rate mode : Variable
Bit rate : 911 Kbps
Channel(s) : 2 channels
Sampling rate : 44.1 KHz
Bit depth : 16 bits
Replay gain : -6.87 dB
Replay gain peak : 0.988739
Stream size : 30.5 MiB (100%)
Writing library : libFLAC 1.2.1 (UTC 2007-09-17)
General
Complete name : Skunk Anansie - An Acoustic Skunk Anansie - Live in London [2013]/09 - Skunk Anansie - You saved me.flac
Format : FLAC
Format/Info : Free Lossless Audio Codec
File size : 21.7 MiB
Duration : 3mn 31s
Overall bit rate mode : Variable
Overall bit rate : 861 Kbps
Album replay gain : -6.55 dB
Album replay gain peak : 0.988983
Album : An Acoustic Skunk Anansie: Live in London
Album/Performer : Skunk Anansie
Part : 1
Part/Total : 1 / 1
Track name : You Saved Me
Track name/Position : 9
Track name/Total : 18 / 18
Performer : Skunk Anansie
Composer : Skin, Cass Lewis, Ace, Mark Richardson
Producer : Boogoyamma LTD licensed to Carosello Records
Label : 100% Records
Genre : General Alternative Rock
Recorded date : 2013-09-23
ISRC : GB2YG1300025
albumartistsort : Skunk Anansie
releasecountry : GB
asin : B00F29PWF2
media : Digital Media
artistsort : Skunk Anansie
acoustid_id : ef657ed3-936f-419b-9db4-05fa87fbc507
musicbrainz_releasegroupid : b0a44a67-d879-4c0c-a761-ea0e9568e907
releasestatus : official
originaldate : 2013-09-23
script : Latn
releasetype : album / live
Audio
Format : FLAC
Format/Info : Free Lossless Audio Codec
Duration : 3mn 31s
Bit rate mode : Variable
Bit rate : 860 Kbps
Channel(s) : 2 channels
Sampling rate : 44.1 KHz
Bit depth : 16 bits
Replay gain : -5.47 dB
Replay gain peak : 0.969238
Stream size : 21.6 MiB (100%)
Writing library : libFLAC 1.2.1 (UTC 2007-09-17)
General
Complete name : Skunk Anansie - An Acoustic Skunk Anansie - Live in London [2013]/08 - Skunk Anansie - Secretly.flac
Format : FLAC
Format/Info : Free Lossless Audio Codec
File size : 30.4 MiB
Duration : 4mn 51s
Overall bit rate mode : Variable
Overall bit rate : 874 Kbps
Album replay gain : -6.55 dB
Album replay gain peak : 0.988983
Album : An Acoustic Skunk Anansie: Live in London
Album/Performer : Skunk Anansie
Part : 1
Part/Total : 1 / 1
Track name : Secretly
Track name/Position : 8
Track name/Total : 18 / 18
Performer : Skunk Anansie
Composer : Len Arran
Producer : Boogoyamma LTD licensed to Carosello Records
Label : 100% Records
Genre : General Alternative Rock
Recorded date : 2013-09-23
ISRC : GB2YG1300024
albumartistsort : Skunk Anansie
releasecountry : GB
asin : B00F29PWF2
media : Digital Media
artistsort : Skunk Anansie
acoustid_id : 9f3ac484-2cbb-4ea4-9b24-32fb97758498
musicbrainz_releasegroupid : b0a44a67-d879-4c0c-a761-ea0e9568e907
releasestatus : official
originaldate : 2013-09-23
script : Latn
releasetype : album / live
Audio
Format : FLAC
Format/Info : Free Lossless Audio Codec
Duration : 4mn 51s
Bit rate mode : Variable
Bit rate : 873 Kbps
Channel(s) : 2 channels
Sampling rate : 44.1 KHz
Bit depth : 16 bits
Replay gain : -6.35 dB
Replay gain peak : 0.975861
Stream size : 30.4 MiB (100%)
Writing library : libFLAC 1.2.1 (UTC 2007-09-17)
General
Complete name : Skunk Anansie - An Acoustic Skunk Anansie - Live in London [2013]/11 - Skunk Anansie - God loves only you.flac
Format : FLAC
Format/Info : Free Lossless Audio Codec
File size : 27.7 MiB
Duration : 4mn 24s
Overall bit rate mode : Variable
Overall bit rate : 880 Kbps
Album replay gain : -6.55 dB
Album replay gain peak : 0.988983
Album : An Acoustic Skunk Anansie: Live in London
Album/Performer : Skunk Anansie
Part : 1
Part/Total : 1 / 1
Track name : God Loves Only You
Track name/Position : 11
Track name/Total : 18 / 18
Performer : Skunk Anansie
Composer : Skin, Cass Lewis, Ace, Mark Richardson
Producer : Boogoyamma LTD licensed to Carosello Records
Label : 100% Records
Genre : General Alternative Rock
Recorded date : 2013-09-23
ISRC : GB2YG1300027
albumartistsort : Skunk Anansie
releasecountry : GB
asin : B00F29PWF2
media : Digital Media
artistsort : Skunk Anansie
acoustid_id : dcd9b69d-fcac-4e5a-828c-e79a362da915
musicbrainz_releasegroupid : b0a44a67-d879-4c0c-a761-ea0e9568e907
releasestatus : official
originaldate : 2013-09-23
script : Latn
releasetype : album / live
Audio
Format : FLAC
Format/Info : Free Lossless Audio Codec
Duration : 4mn 24s
Bit rate mode : Variable
Bit rate : 880 Kbps
Channel(s) : 2 channels
Sampling rate : 44.1 KHz
Bit depth : 16 bits
Replay gain : -6.06 dB
Replay gain peak : 0.988556
Stream size : 27.7 MiB (100%)
Writing library : libFLAC 1.2.1 (UTC 2007-09-17)
General
Complete name : Skunk Anansie - An Acoustic Skunk Anansie - Live in London [2013]/05 - Skunk Anansie - Charity.flac
Format : FLAC
Format/Info : Free Lossless Audio Codec
File size : 30.0 MiB
Duration : 4mn 51s
Overall bit rate mode : Variable
Overall bit rate : 862 Kbps
Album replay gain : -6.55 dB
Album replay gain peak : 0.988983
Album : An Acoustic Skunk Anansie: Live in London
Album/Performer : Skunk Anansie
Part : 1
Part/Total : 1 / 1
Track name : Charity
Track name/Position : 5
Track name/Total : 18 / 18
Performer : Skunk Anansie
Composer : Len Arran
Producer : Boogoyamma LTD licensed to Carosello Records
Label : 100% Records
Genre : General Alternative Rock
Recorded date : 2013-09-23
ISRC : GB2YG1300021
albumartistsort : Skunk Anansie
releasecountry : GB
asin : B00F29PWF2
media : Digital Media
artistsort : Skunk Anansie
acoustid_id : 89d1c6b7-f727-4bff-b370-a417a073557f
musicbrainz_releasegroupid : b0a44a67-d879-4c0c-a761-ea0e9568e907
releasestatus : official
originaldate : 2013-09-23
script : Latn
releasetype : album / live
Audio
Format : FLAC
Format/Info : Free Lossless Audio Codec
Duration : 4mn 51s
Bit rate mode : Variable
Bit rate : 862 Kbps
Channel(s) : 2 channels
Sampling rate : 44.1 KHz
Bit depth : 16 bits
Replay gain : -6.48 dB
Replay gain peak : 0.988708
Stream size : 30.0 MiB (100%)
Writing library : libFLAC 1.2.1 (UTC 2007-09-17)
General
Complete name : Skunk Anansie - An Acoustic Skunk Anansie - Live in London [2013]/17 - Skunk Anansie - Twisted (Everyday hurts).flac
Format : FLAC
Format/Info : Free Lossless Audio Codec
File size : 29.7 MiB
Duration : 4mn 22s
Overall bit rate mode : Variable
Overall bit rate : 951 Kbps
Album replay gain : -6.55 dB
Album replay gain peak : 0.988983
Album : An Acoustic Skunk Anansie: Live in London
Album/Performer : Skunk Anansie
Part : 1
Part/Total : 1 / 1
Track name : Twisted (Everyday Hurts)
Track name/Position : 17
Track name/Total : 18 / 18
Performer : Skunk Anansie
Composer : Len Arran
Producer : Boogoyamma LTD licensed to Carosello Records
Label : 100% Records
Genre : General Alternative Rock
Recorded date : 2013-09-23
ISRC : GB2YG1300033
albumartistsort : Skunk Anansie
releasecountry : GB
asin : B00F29PWF2
media : Digital Media
artistsort : Skunk Anansie
acoustid_id : ce2474b4-42bd-4974-916c-1e9379bbe0b1
musicbrainz_releasegroupid : b0a44a67-d879-4c0c-a761-ea0e9568e907
releasestatus : official
originaldate : 2013-09-23
script : Latn
releasetype : album / live
Audio
Format : FLAC
Format/Info : Free Lossless Audio Codec
Duration : 4mn 22s
Bit rate mode : Variable
Bit rate : 951 Kbps
Channel(s) : 2 channels
Sampling rate : 44.1 KHz
Bit depth : 16 bits
Replay gain : -6.04 dB
Replay gain peak : 0.964081
Stream size : 29.7 MiB (100%)
Writing library : libFLAC 1.2.1 (UTC 2007-09-17)
General
Complete name : Skunk Anansie - An Acoustic Skunk Anansie - Live in London [2013]/03 - Skunk Anansie - Infidelity (Only you).flac
Format : FLAC
Format/Info : Free Lossless Audio Codec
File size : 34.9 MiB
Duration : 5mn 43s
Overall bit rate mode : Variable
Overall bit rate : 854 Kbps
Album replay gain : -6.55 dB
Album replay gain peak : 0.988983
Album : An Acoustic Skunk Anansie: Live in London
Album/Performer : Skunk Anansie
Part : 1
Part/Total : 1 / 1
Track name : Infidelity (Only You)
Track name/Position : 3
Track name/Total : 18 / 18
Performer : Skunk Anansie
Composer : Skin, Cass Lewis, Ace, Mark Richardson
Producer : Boogoyamma LTD licensed to Carosello Records
Label : 100% Records
Genre : General Alternative Rock
Recorded date : 2013-09-23
ISRC : GB2YG1300019
albumartistsort : Skunk Anansie
releasecountry : GB
asin : B00F29PWF2
media : Digital Media
artistsort : Skunk Anansie
acoustid_id : 7051c47b-f137-45b7-8315-7e4242978128
musicbrainz_releasegroupid : b0a44a67-d879-4c0c-a761-ea0e9568e907
releasestatus : official
originaldate : 2013-09-23
script : Latn
releasetype : album / live
Audio
Format : FLAC
Format/Info : Free Lossless Audio Codec
Duration : 5mn 43s
Bit rate mode : Variable
Bit rate : 853 Kbps
Channel(s) : 2 channels
Sampling rate : 44.1 KHz
Bit depth : 16 bits
Replay gain : -4.85 dB
Replay gain peak : 0.924286
Stream size : 34.9 MiB (100%)
Writing library : libFLAC 1.2.1 (UTC 2007-09-17)
General
Complete name : Skunk Anansie - An Acoustic Skunk Anansie - Live in London [2013]/06 - Skunk Anansie - 100 ways to be a good girl.flac
Format : FLAC
Format/Info : Free Lossless Audio Codec
File size : 27.1 MiB
Duration : 4mn 28s
Overall bit rate mode : Variable
Overall bit rate : 844 Kbps
Album replay gain : -6.55 dB
Album replay gain peak : 0.988983
Album : An Acoustic Skunk Anansie: Live in London
Album/Performer : Skunk Anansie
Part : 1
Part/Total : 1 / 1
Track name : 100 Ways to Be a Good Girl
Track name/Position : 6
Track name/Total : 18 / 18
Performer : Skunk Anansie
Composer : Skin
Producer : Boogoyamma LTD licensed to Carosello Records
Label : 100% Records
Genre : General Alternative Rock
Recorded date : 2013-09-23
ISRC : GB2YG1300022
albumartistsort : Skunk Anansie
releasecountry : GB
asin : B00F29PWF2
media : Digital Media
artistsort : Skunk Anansie
acoustid_id : bd0a4576-77d1-4422-b835-acaacf2fd41e
musicbrainz_releasegroupid : b0a44a67-d879-4c0c-a761-ea0e9568e907
releasestatus : official
originaldate : 2013-09-23
script : Latn
releasetype : album / live
Audio
Format : FLAC
Format/Info : Free Lossless Audio Codec
Duration : 4mn 28s
Bit rate mode : Variable
Bit rate : 844 Kbps
Channel(s) : 2 channels
Sampling rate : 44.1 KHz
Bit depth : 16 bits
Replay gain : -4.91 dB
Replay gain peak : 0.948456
Stream size : 27.0 MiB (100%)
Writing library : libFLAC 1.2.1 (UTC 2007-09-17)
General
Complete name : Skunk Anansie - An Acoustic Skunk Anansie - Live in London [2013]/16 - Skunk Anansie - Hedonism (Just because you feel good).flac
Format : FLAC
Format/Info : Free Lossless Audio Codec
File size : 24.4 MiB
Duration : 4mn 2s
Overall bit rate mode : Variable
Overall bit rate : 842 Kbps
Album replay gain : -6.55 dB
Album replay gain peak : 0.988983
Album : An Acoustic Skunk Anansie: Live in London
Album/Performer : Skunk Anansie
Part : 1
Part/Total : 1 / 1
Track name : Hedonism (Just Because You Feel Good)
Track name/Position : 16
Track name/Total : 18 / 18
Performer : Skunk Anansie
Composer : Skin
Producer : Boogoyamma LTD licensed to Carosello Records
Label : 100% Records
Genre : General Alternative Rock
Recorded date : 2013-09-23
ISRC : GB2YG1300032
albumartistsort : Skunk Anansie
releasecountry : GB
asin : B00F29PWF2
media : Digital Media
artistsort : Skunk Anansie
acoustid_id : 7d3b6796-bb1f-48d6-a75f-9c0f9ba6fa9b
musicbrainz_releasegroupid : b0a44a67-d879-4c0c-a761-ea0e9568e907
releasestatus : official
originaldate : 2013-09-23
script : Latn
releasetype : album / live
Audio
Format : FLAC
Format/Info : Free Lossless Audio Codec
Duration : 4mn 2s
Bit rate mode : Variable
Bit rate : 842 Kbps
Channel(s) : 2 channels
Sampling rate : 44.1 KHz
Bit depth : 16 bits
Replay gain : -4.98 dB
Replay gain peak : 0.988770
Stream size : 24.4 MiB (100%)
Writing library : libFLAC 1.2.1 (UTC 2007-09-17)
General
Complete name : Skunk Anansie - An Acoustic Skunk Anansie - Live in London [2013]/cover_f.jpg
Format : JPEG
File size : 58.7 KiB
Image
Format : JPEG
Width : 500 pixels
Height : 444 pixels
Color space : YUV
Chroma subsampling : 4:2:0
Bit depth : 8 bits
Compression mode : Lossy
Stream size : 58.7 KiB (100%)
General
Complete name : Skunk Anansie - An Acoustic Skunk Anansie - Live in London [2013]/12 - Skunk Anansie - You do something to me.flac
Format : FLAC
Format/Info : Free Lossless Audio Codec
File size : 25.5 MiB
Duration : 4mn 13s
Overall bit rate mode : Variable
Overall bit rate : 845 Kbps
Album replay gain : -6.55 dB
Album replay gain peak : 0.988983
Album : An Acoustic Skunk Anansie: Live in London
Album/Performer : Skunk Anansie
Part : 1
Part/Total : 1 / 1
Track name : You Do Something to Me
Track name/Position : 12
Track name/Total : 18 / 18
Performer : Skunk Anansie
Composer : Paul Weller
Producer : Boogoyamma LTD licensed to Carosello Records
Label : 100% Records
Genre : General Alternative Rock
Recorded date : 2013-09-23
ISRC : GB2YG1300028
albumartistsort : Skunk Anansie
releasecountry : GB
asin : B00F29PWF2
media : Digital Media
artistsort : Skunk Anansie
acoustid_id : 895b7565-85a8-47f6-8bb4-e9226d646a0f
musicbrainz_releasegroupid : b0a44a67-d879-4c0c-a761-ea0e9568e907
releasestatus : official
originaldate : 2013-09-23
script : Latn
releasetype : album / live
Audio
Format : FLAC
Format/Info : Free Lossless Audio Codec
Duration : 4mn 13s
Bit rate mode : Variable
Bit rate : 844 Kbps
Channel(s) : 2 channels
Sampling rate : 44.1 KHz
Bit depth : 16 bits
Replay gain : -5.74 dB
Replay gain peak : 0.976166
Stream size : 25.5 MiB (100%)
Writing library : libFLAC 1.2.1 (UTC 2007-09-17)
General
Complete name : Skunk Anansie - An Acoustic Skunk Anansie - Live in London [2013]/07 - Skunk Anansie - I believed in you.flac
Format : FLAC
Format/Info : Free Lossless Audio Codec
File size : 24.4 MiB
Duration : 3mn 36s
Overall bit rate mode : Variable
Overall bit rate : 947 Kbps
Album replay gain : -6.55 dB
Album replay gain peak : 0.988983
Album : An Acoustic Skunk Anansie: Live in London
Album/Performer : Skunk Anansie
Part : 1
Part/Total : 1 / 1
Track name : I Believed in You
Track name/Position : 7
Track name/Total : 18 / 18
Performer : Skunk Anansie
Composer : Martin Kent
Producer : Boogoyamma LTD licensed to Carosello Records
Label : 100% Records
Genre : General Alternative Rock
Recorded date : 2013-09-23
ISRC : GB2YG1300023
albumartistsort : Skunk Anansie
releasecountry : GB
asin : B00F29PWF2
media : Digital Media
artistsort : Skunk Anansie
acoustid_id : 7813965d-44bb-437c-90ac-9a707c1f1f40
musicbrainz_releasegroupid : b0a44a67-d879-4c0c-a761-ea0e9568e907
releasestatus : official
originaldate : 2013-09-23
script : Latn
releasetype : album / live
Audio
Format : FLAC
Format/Info : Free Lossless Audio Codec
Duration : 3mn 36s
Bit rate mode : Variable
Bit rate : 946 Kbps
Channel(s) : 2 channels
Sampling rate : 44.1 KHz
Bit depth : 16 bits
Replay gain : -7.35 dB
Replay gain peak : 0.988983
Stream size : 24.4 MiB (100%)
Writing library : libFLAC 1.2.1 (UTC 2007-09-17)
General
Complete name : Skunk Anansie - An Acoustic Skunk Anansie - Live in London [2013]/01 - Skunk Anansie - Brazen (Weep).flac
Format : FLAC
Format/Info : Free Lossless Audio Codec
File size : 25.0 MiB
Duration : 4mn 21s
Overall bit rate mode : Variable
Overall bit rate : 801 Kbps
Album replay gain : -6.55 dB
Album replay gain peak : 0.988983
Album : An Acoustic Skunk Anansie: Live in London
Album/Performer : Skunk Anansie
Part : 1
Part/Total : 1 / 1
Track name : Brazen (Weep)
Track name/Position : 1
Track name/Total : 18 / 18
Performer : Skunk Anansie
Composer : Skin
Producer : Boogoyamma LTD licensed to Carosello Records
Label : 100% Records
Genre : General Alternative Rock
Recorded date : 2013-09-23
ISRC : GB2YG1300017
albumartistsort : Skunk Anansie
releasecountry : GB
asin : B00F29PWF2
media : Digital Media
artistsort : Skunk Anansie
acoustid_id : f9ee77c7-1ca2-476d-adff-51b9a5533d95
musicbrainz_releasegroupid : b0a44a67-d879-4c0c-a761-ea0e9568e907
releasestatus : official
originaldate : 2013-09-23
script : Latn
releasetype : album / live
Audio
Format : FLAC
Format/Info : Free Lossless Audio Codec
Duration : 4mn 21s
Bit rate mode : Variable
Bit rate : 801 Kbps
Channel(s) : 2 channels
Sampling rate : 44.1 KHz
Bit depth : 16 bits
Replay gain : -3.38 dB
Replay gain peak : 0.968994
Stream size : 25.0 MiB (100%)
Writing library : libFLAC 1.2.1 (UTC 2007-09-17)
General
Complete name : Skunk Anansie - An Acoustic Skunk Anansie - Live in London [2013]/15 - Skunk Anansie - Squander.flac
Format : FLAC
Format/Info : Free Lossless Audio Codec
File size : 28.8 MiB
Duration : 4mn 30s
Overall bit rate mode : Variable
Overall bit rate : 892 Kbps
Album replay gain : -6.55 dB
Album replay gain peak : 0.988983
Album : An Acoustic Skunk Anansie: Live in London
Album/Performer : Skunk Anansie
Part : 1
Part/Total : 1 / 1
Track name : Squander
Track name/Position : 15
Track name/Total : 18 / 18
Performer : Skunk Anansie
Composer : String Arrangement: Wil Malone
Producer : Boogoyamma LTD licensed to Carosello Records
Label : 100% Records
Genre : General Alternative Rock
Recorded date : 2013-09-23
ISRC : GB2YG1300031
albumartistsort : Skunk Anansie
releasecountry : GB
asin : B00F29PWF2
media : Digital Media
artistsort : Skunk Anansie
acoustid_id : 81334b9c-71f3-4dd0-aba3-bb96c5744903
musicbrainz_releasegroupid : b0a44a67-d879-4c0c-a761-ea0e9568e907
releasestatus : official
originaldate : 2013-09-23
script : Latn
releasetype : album / live
Audio
Format : FLAC
Format/Info : Free Lossless Audio Codec
Duration : 4mn 30s
Bit rate mode : Variable
Bit rate : 892 Kbps
Channel(s) : 2 channels
Sampling rate : 44.1 KHz
Bit depth : 16 bits
Replay gain : -6.80 dB
Replay gain peak : 0.976990
Stream size : 28.8 MiB (100%)
Writing library : libFLAC 1.2.1 (UTC 2007-09-17)
General
Complete name : Skunk Anansie - An Acoustic Skunk Anansie - Live in London [2013]/10 - Skunk Anansie - I will break you.flac
Format : FLAC
Format/Info : Free Lossless Audio Codec
File size : 27.1 MiB
Duration : 4mn 4s
Overall bit rate mode : Variable
Overall bit rate : 931 Kbps
Album replay gain : -6.55 dB
Album replay gain peak : 0.988983
Album : An Acoustic Skunk Anansie: Live in London
Album/Performer : Skunk Anansie
Part : 1
Part/Total : 1 / 1
Track name : I Will Break You
Track name/Position : 10
Track name/Total : 18 / 18
Performer : Skunk Anansie
Composer : Deborah Dyer
Producer : Boogoyamma LTD licensed to Carosello Records
Label : 100% Records
Genre : General Alternative Rock
Recorded date : 2013-09-23
ISRC : GB2YG1300026
albumartistsort : Skunk Anansie
releasecountry : GB
asin : B00F29PWF2
media : Digital Media
artistsort : Skunk Anansie
acoustid_id : a72d335c-0cfd-46e0-bae1-294bc16ef719
musicbrainz_releasegroupid : b0a44a67-d879-4c0c-a761-ea0e9568e907
releasestatus : official
originaldate : 2013-09-23
script : Latn
releasetype : album / live
Audio
Format : FLAC
Format/Info : Free Lossless Audio Codec
Duration : 4mn 4s
Bit rate mode : Variable
Bit rate : 930 Kbps
Channel(s) : 2 channels
Sampling rate : 44.1 KHz
Bit depth : 16 bits
Replay gain : -7.18 dB
Replay gain peak : 0.988647
Stream size : 27.1 MiB (100%)
Writing library : libFLAC 1.2.1 (UTC 2007-09-17)
General
Complete name : Skunk Anansie - An Acoustic Skunk Anansie - Live in London [2013]/04 - Skunk Anansie - I hope you get to meet your hero.flac
Format : FLAC
Format/Info : Free Lossless Audio Codec
File size : 24.9 MiB
Duration : 3mn 46s
Overall bit rate mode : Variable
Overall bit rate : 924 Kbps
Album replay gain : -6.55 dB
Album replay gain peak : 0.988983
Album : An Acoustic Skunk Anansie: Live in London
Album/Performer : Skunk Anansie
Part : 1
Part/Total : 1 / 1
Track name : I Hope You Get to Meet Your Hero
Track name/Position : 4
Track name/Total : 18 / 18
Performer : Skunk Anansie
Composer : Richard A Lewis
Producer : Boogoyamma LTD licensed to Carosello Records
Label : 100% Records
Genre : General Alternative Rock
Recorded date : 2013-09-23
ISRC : GB2YG1300020
albumartistsort : Skunk Anansie
releasecountry : GB
asin : B00F29PWF2
media : Digital Media
artistsort : Skunk Anansie
acoustid_id : 68a3cf9b-407e-4a7d-a5dc-4e3bd66ff8d1
musicbrainz_releasegroupid : b0a44a67-d879-4c0c-a761-ea0e9568e907
releasestatus : official
originaldate : 2013-09-23
script : Latn
releasetype : album / live
Audio
Format : FLAC
Format/Info : Free Lossless Audio Codec
Duration : 3mn 46s
Bit rate mode : Variable
Bit rate : 924 Kbps
Channel(s) : 2 channels
Sampling rate : 44.1 KHz
Bit depth : 16 bits
Replay gain : -7.09 dB
Replay gain peak : 0.971954
Stream size : 24.9 MiB (100%)
Writing library : libFLAC 1.2.1 (UTC 2007-09-17)

Related music:
Top Hits Volume 1 torrented dj M. download Top Hits Volume 1 torrented dj M.
MP3
Italian
140.1 MB
4.7
/images/5/9/top-hits-volume-1-torrented-dj-m.jpg
Skunk Anansie - Wonderlustre mp3-vbr-2010 trfkad download Skunk Anansie - Wonderlustre mp3-vbr-2010 trfkad
MP3
English
83.1 MB
4.2
/images/5/8/skunk-anansie-wonderlustre-mp3-vbr-2010-trfkad.jpg
Skunk Anansie - Wonderlustre FLAC 2010 download Skunk Anansie - Wonderlustre FLAC 2010
Lossless
English
280.4 MB
4.4
/images/5/2/skunk-anansie-wonderlustre-flac-2010.jpg
VA-Sucker Punch OST 2011-MFA download VA-Sucker Punch OST 2011-MFA
MP3
English
112.7 MB
4.5
/images/5/1/va-sucker-punch-ost-2011-mfa.jpg
Skunk Anansie - Black Traffic 2012 download Skunk Anansie - Black Traffic 2012
Album
English
89.1 MB
4.8
/images/5/6/skunk-anansie-black-traffic-2012.jpg
Doe Maar 1981 Skunk download Doe Maar 1981 Skunk
Lossless
English
258.4 MB
4.9
/images/5/9/doe-maar-1981-skunk-.jpg
Sucker Punch OST 2011 EAC - FLAC download Sucker Punch OST 2011 EAC - FLAC
Lossless
English
340.2 MB
4.9
/images/5/3/sucker-punch-ost-2011-eac-flac.jpg
Skunk Anansie - Because Of You- Promo CDM rar 2009 download Skunk Anansie - Because Of You- Promo CDM rar 2009
Lossless
English
28.6 MB
4.1
/images/5/9/skunk-anansie-because-of-you-promo-cdm-rar-2009.jpg
AA VV Festivalbar 99Mix italian music Eac Flac Cue download AA VV Festivalbar 99Mix italian music Eac Flac Cue
Lossless
Italian
914.4 MB
4.9
/images/5/9/aa-vv-festivalbar-99mix-italian-music-eac-flac-cue.jpg