Files 42316
» » City of the Fallen - Creation Flac 2019
Language: English
Size: 177.2 MB
Votes: 625
Downloaded: 39
Category: Lossless
Format: MP3, FLAC
4.2

File list

City of the Fallen - Creation (2019) Flac
  • 01 - Abell 2537.flac (17.5 MB)
  • 02 - Eta Carina.flac (16.5 MB)
  • 03 - Eye of the Helix.flac (19.6 MB)
  • 04 - Fractals.flac (24.3 MB)
  • 05 - Heliosphere.flac (16.0 MB)
  • 06 - M31.flac (26.1 MB)
  • 07 - Omicron Velorum.flac (15.2 MB)
  • 08 - Stellar Wind.flac (14.4 MB)
  • 09 - The Bending of Light.flac (13.3 MB)
  • 10 - The Hourglass.flac (14.2 MB)
  • [TGx]Downloaded from torrentgalaxy.org .txt (0.6 KB)
  • cover.jpg (209.0 KB)
  • dr14.txt (1.3 KB)
  • Torrent Downloaded from Glodls.to.txt (0.2 KB)
  • Torrent downloaded from limetorrents.cc.txt (0.1 KB)
  • Torrent Downloaded from worldwidetorrents.to (0.1 KB)

03 - Eye of the Helix. 1. 9 MB. Downloaded from torrentgalaxy.

03 - Eye of the Helix. 8 MB. 04 - Fractals. 2. 05 - Heliosphere. 2 MB. 06 - M3. lac.

Time, space and dimension are explored as they pull the colors of orchestra and synthesis into the creation of the cosmos. May 28 ·. We will be releasing a new album soon, titled 'Creation', which will tell the story of the beginning of the cosmos. Rules will be broken. Lines will be blurred. September 26, 2018 ·.

All Music Audio books Sound clips FLAC Other Movies Movies DVDR Music videos Movie clips TV shows Handheld HD - Movies HD. .

All Music Audio books Sound clips FLAC Other Movies Movies DVDR Music videos Movie clips TV shows Handheld HD - Movies HD - TV shows 3D Other Windows Mac UNIX Handheld IOS (iPad/iPhone) Android Other OS PC Mac PSx XBOX360 Wii Handheld IOS (iPad/iPhone) Android Other Movies Movies DVDR Pictures Games HD - Movies Movie clips Other E-books Comics Pictures Covers.

Eye of the Helix, 04:04.

альбом включает в себя следующие треки: CD1-Original Stereo Album, 2019 Remaster (01:19:24) 01. Victoria (Stereo, 2019 Remaster) 03:42 02.

Страна: США. Формат: FLAC. Decadence Within 09. Injected Sufferage 10. Malevolent Creation. Blood of the Fallen 06. Resistance is Victory 07. 12th Prophecy 08.

ФОРМАТ: FLAC, (tracks). 1 июля 2019 Classic Rock Glam Metal. Lord Howler - Dance of the Ghosts (2019). The Lord Weird Slough Feg - New Organon (lossless, 2019). 26 июня 2019 Hard Rock Heavy Rock. 22 июня 2019 Heavy Metal. The Lord Weird Slough Feg - New Organon (2019). 13 июня 2019 Heavy Metal.

info reation-(2019)-Flac Music. flac16 MB. 03 - Eye of the Helix. flac20 MB. co City of the Fallen - Creation (2019) Flac Music. com City Of The Fallen: Creation (2019) Flac Music. ch reation-(2019)-Flac Music. eu City of the Fallen - Creation (2019) Flac audio. flac24 MB.

All Video Games Application Audio Other. City of the Fallen - Creation (2019) Flac.


Quality-Lossless
Release-2019
Duration-00:34:46
File Size-185.8 MB
Genre-Gospel
Cover Size-1200px

Analyzed: Creation / Artist: City of the Fallen
DR Peak RMS Duration Title [codec]
DR4 -0.06 dB -12.06 dB 3:29 01 - Abell 2537 [flac]
DR8 -0.00 dB -16.82 dB 3:06 02 - Eta Carina [flac]
DR7 -0.25 dB -13.37 dB 4:04 03 - Eye of the Helix [flac]
DR4 -0.19 dB -9.30 dB 3:56 04 - Fractals [flac]
DR4 -0.00 dB -11.14 dB 3:04 05 - Heliosphere [flac]
DR8 -0.07 dB -15.79 dB 5:48 06 - M31 [flac]
DR5 -3.42 dB -14.76 dB 3:04 07 - Omicron Velorum [flac]
DR10 -0.07 dB -16.94 dB 3:12 08 - Stellar Wind [flac]
DR4 -0.00 dB -9.36 dB 2:29 09 - The Bending of Light [flac]
DR4 -0.00 dB -10.37 dB 2:31 10 - The Hourglass [flac]
Number of files: 10
Official DR value: DR6
Sampling rate: 44100 Hz
Average bitrate: 716kbs
Bits per sample: 16 bit

Related music:
Erasure - Wild! 88.2-24bit Edition 1989 Remastered download Erasure - Wild! 88.2-24bit Edition 1989 Remastered
Lossless
English
2.1 GB
4.3
/images/5/0/erasure-wild21-882-24bit-edition-1989-remastered.jpg
RuthAnne - Matters Of The Heart Flac 2019 download RuthAnne - Matters Of The Heart Flac 2019
Lossless
English
297.1 MB
4.6
/images/5/8/ruthanne-matters-of-the-heart-flac-2019.jpg
Brooke Miller - Familiar 2012 24bit Hi-Res 2019 download Brooke Miller - Familiar 2012 24bit Hi-Res 2019
Lossless
English
468.1 MB
4.1
/images/5/2/brooke-miller-familiar-2012-24bit-hi-res-2019.jpg
Dominic Sen - Visitor Flac 2019 download Dominic Sen - Visitor Flac 2019
Lossless
English
265.2 MB
4.0
/images/5/5/dominic-sen-visitor-flac-2019.jpg
Kalie Shorr - Open Book Flac-was95 2019 download Kalie Shorr - Open Book Flac-was95 2019
Lossless
English
302.9 MB
4.8
/images/5/8/kalie-shorr-open-book-flac-was95-2019.jpg
Clare Bowen - Clare Bowen 24bit Hi-Res 2019 download Clare Bowen - Clare Bowen 24bit Hi-Res 2019
Lossless
English
519.7 MB
4.4
/images/5/6/clare-bowen-clare-bowen-24bit-hi-res-2019.jpg
Electric Guest - KIN Flac 2019 download Electric Guest - KIN Flac 2019
Lossless
English
233.2 MB
4.8
/images/5/2/electric-guest-kin-flac-2019.jpg
Sibéal - Sibéal Flac 2019 download Sibéal - Sibéal Flac 2019
Lossless
English
265.6 MB
4.1
/images/5/7/sibc3a9al-sibc3a9al-flac-2019.jpg
Nona - Nona Flac 2019 download Nona - Nona Flac 2019
Lossless
English
279.8 MB
4.8
/images/noimage.jpg