Files 42316
» » Bjork - Greatest Hits, Flac + M3U
Language: English
Size: 471.0 MB
Votes: 920
Downloaded: 38
Category: Lossless
Format: MP3, FLAC
4.0

File list

  • 01 - All Is Full Of Love.flac (32.2 MB)
  • 02 - Hyperballad.flac (33.7 MB)
  • 03 - Human Behaviour.flac (26.6 MB)
  • 04 - Jóga.flac (34.1 MB)
  • 05 - Bachelorette.flac (36.1 MB)
  • 06 - Army Of Me.flac (27.9 MB)
  • 07 - Pagan Poetry.flac (34.7 MB)
  • 08 - Big Time Sensuality.flac (33.1 MB)
  • 09 - Venus As A Boy.flac (31.2 MB)
  • 10 - Hunter.flac (28.4 MB)
  • 11 - Hidden Place.flac (34.2 MB)
  • 12 - Isobel.flac (37.5 MB)
  • 13 - Possibly Maybe.flac (28.2 MB)
  • 14 - Play Dead.flac (26.2 MB)
  • 15 - It's In Our Hands.flac (26.8 MB)
  • Björk - Greatest Hits - Back.jpg (111.8 KB)
  • Björk - Greatest Hits - CD.jpg (80.2 KB)
  • Björk - Greatest Hits - Front.jpg (62.7 KB)
  • Björk - Greatest Hits.m3u (0.9 KB)
  • Greatest Hits.log (3.0 KB)

Details for this torrent. Bjork - Greatest Hits - 2002 (oan). Bjork Greatest Hits 2002 Electronica alternative rock trip hop avant-garde rock.

Details for this torrent. Uploaded: 2010-03-13 16:33:12 GMT. By: oneanight.

Bjork - Greatest Hits. 12. KB. Greatest Hits. Bjork - Homogenic (1997).

Performer: Bjork Album: Greatest Hits Label: One Little Indian. Made in UK. Catalog TPLP359CD Style: Electronic, Experimental Year: 2002 Format: FLAC (image . ue) Bitrate: lossless Co. Performer: Bjork Album: Greatest Hits Label: One Little Indian. Greatest Hits is a compilation album released in November 2002 featuring the songs of Icelandic singer Björk.

Bjork, Greatest Hits. Björk - Greatest Hits. m3u (. KB).

Формат: FLAC, (image . ue), lossless Год выпуска: 1994 Страна: England Жанр: Glam Rock, Hard Rock, Classic Rock . Отчёт EAC об извлечении, выполненном 20. октября 2010, 20:22. Slade, Greatest Hits (CD3). ue), lossless Год выпуска: 1994 Страна: England Жанр: Glam Rock, Hard Rock, Classic Rock Продолжительность: 03:56:32 Описание: CD 1 01. 01. - Won't You Rock With Me 0. Дисковод: NEC DVD RW ND-4550A Adapter: 0 ID: 0. Режим чтения : Достоверность Использование точного потока : Да Отключение кэша аудио : Да Использование указателей C2 : Нет.

To bring the best, most trustworthy information to every internet reader. I believe all of this is doable, if we pull together to create the internet as it was meant to be. The Great Library for all. The Internet Archive is a bargain, but we need your help. If you find our site useful, please chip in. Thank you. -Brewster Kahle, Founder, Internet Archive. Dear Internet Archive Supporter, I ask only once a year: please help the Internet Archive today.

Queen - Greatest Hits. 02 - Another One Bites The Dust. January 23 2010 at 22:30. 00. Queen - Greatest Hits. 01 - Bohemian Rhapsody. September 23 2013 at 15:21. August 4 2013 at 14:17. September 18 2013 at 17:14.


:::->Dati Album<-:::
Autore:Bjork
titolo:Greatest Hits
Anno: 2002
Genere: Electronic / avant pop
Etichetta:fonte cd /originale /cdda
Cover : Incluse
etichetta :react
:::->Tracklist<-:::
All Is Full Of Love
Hyperballad
Human Behaviour
Joga
Bachelorette
Army Of Me
Pagan Poetry
Big Time Sensuality (The Fluxe Minimix)
Venus As A Boy
Hunter
Hidden Place
Isobel
Possibly Maybe

Code:

Exact Audio Copy V0.99 prebeta 3 from 28. July 2007
EAC extraction logfile from 24. March 2008, 23:07
Bjork / Greatest Hits
Used drive : _NEC DVD_RW ND-3550A Adapter: 5 ID: 0
Read mode : Secure
Utilize accurate stream : Yes
Defeat audio cache : Yes
Make use of C2 pointers : No
Read offset correction : 48
Overread into Lead-In and Lead-Out : No
Fill up missing offset samples with silence : Yes
Delete leading and trailing silent blocks : No
Null samples used in CRC calculations : No
Used interface : Installed external ASPI interface
Used output format : User Defined Encoder
Selected bitrate : 768 kBit/s
Quality : High
Add ID3 tag : No
Command line compressor : C:ProgrammiExact Audio CopyFLACFLAC.EXE
Additional command line options : -6 -V -T "ARTIST=%a" -T "TITLE=%t" -T "ALBUM=%g" -T "DATE=%y" -T "TRACKNUMBER=%n" -T "GENRE=%m" -T "COMMENT=%e" %s -o %d
TOC of the extracted CD
Track | Start | Length | Start sector | End sector
-
1 | 0:00.00 | 4:09.38 | 0 | 18712
2 | 4:09.38 | 3:59.49 | 18713 | 36686
3 | 8:09.12 | 4:18.35 | 36687 | 56071
4 | 12:27.47 | 3:13.34 | 56072 | 70580
5 | 15:41.06 | 5:13.27 | 70581 | 94082
6 | 20:54.33 | 3:57.15 | 94083 | 111872
7 | 24:51.48 | 4:03.07 | 111873 | 130104
8 | 28:54.55 | 4:54.64 | 130105 | 152218
9 | 33:49.44 | 4:36.38 | 152219 | 172956
10 | 38:26.07 | 3:39.57 | 172957 | 189438
11 | 42:05.64 | 4:24.19 | 189439 | 209257
12 | 46:30.08 | 4:16.00 | 209258 | 228457
13 | 50:46.08 | 5:13.17 | 228458 | 251949
14 | 55:59.25 | 3:49.54 | 251950 | 269178
15 | 59:49.04 | 4:13.30 | 269179 | 288183
Range status and errors
Selected range
Filename D:Documents and Settingssalvo.SN116508160310DocumentiBjork - Greatest Hits.wav
Peak level 99.0 %
Range quality 100.0 %
Test CRC 57B1E483
Copy CRC 57B1E483
Copy OK
No errors occurred
AccurateRip summary

http://www.youtube.com/watch?v=AfwBoumNpmc

Related music:
Rick Springfield - Rick Springfield's Greatest Hits - download Rick Springfield - Rick Springfield's Greatest Hits -
Lossless
English
319.8 MB
4.6
/images/5/1/rick-springfield-rick-springfield27s-greatest-hits-.jpg
Bjork - Greatest Hits @flac 2002 download Bjork - Greatest Hits @flac 2002
Lossless
English
538.0 MB
4.7
/images/5/6/bjork-greatest-hits-40flac-2002.jpg
Bjork - Greatest Hits - 2002 EAC - FLAC download Bjork - Greatest Hits - 2002 EAC - FLAC
Lossless
English
473.6 MB
4.6
/images/5/4/bjork-greatest-hits-2002-eac-flac.jpg
Bjork - Utopia FLAC CD-Rip 2017 download Bjork - Utopia FLAC CD-Rip 2017
Lossless
English
452.3 MB
4.6
/images/5/2/bjork-utopia-flac-cd-rip-2017.jpg
Bjork - Greatest Hits 2002 - Kitlope FLAC h33t download Bjork - Greatest Hits 2002 - Kitlope FLAC h33t
Lossless
English
466.0 MB
4.7
/images/5/9/bjork-greatest-hits-2002-kitlope-flac-h33t.jpg
Bjork - Debut FLAC Soup 1993 download Bjork - Debut FLAC Soup 1993
Lossless
English
318.6 MB
4.8
/images/5/8/bjork-debut-flac-soup-1993.jpg
Pat Benatar - Greatest Hits - download Pat Benatar - Greatest Hits -
Lossless
English
610.1 MB
4.8
/images/5/2/pat-benatar-greatest-hits-.jpg
Bjork - Greatest Hits - 2002 MP3 @ 320 download Bjork - Greatest Hits - 2002 MP3 @ 320
Album
English
166.2 MB
4.3
/images/5/2/bjork-greatest-hits-2002-mp3-40-320.jpg