Files 42316
» » Black Sabbath - The Best Flac+Cue
Language: Italian
Size: 1.0 GB
Votes: 054
Downloaded: 26
Category: Lossless
Format: MP3, FLAC
4.7

File list

Black sabbath - The Best of Black Sabbath (CD 1)
  • Black sabbath - The Best of Black Sabbath (CD 1).cue (1.7 KB)
  • Black sabbath - The Best of Black Sabbath (CD 1).flac (519.1 MB)
  • The Best of Black Sabbath (CD 1).log (4.3 KB)
Black sabbath - The best of black sabbath (CD 2)
  • Black sabbath - The best of black sabbath (CD 2).cue (1.8 KB)
  • Black sabbath - The best of black sabbath (CD 2).flac (542.6 MB)
  • The best of black sabbath (CD 2).log (4.3 KB)
  • blacksabbath-bestof.jpg (23.4 KB)
  • blacksabbath-bestof001.jpg (51.7 KB)

ИСПОЛНИТЕЛЬ: Black Sabbath. ФОРМАТ: FLAC, (image+. Оф сайт: ww. lacksabbath.

ИСПОЛНИТЕЛЬ: Black Sabbath. АЛЬБОМ, НАЗВАНИЕ: 19 Studio Albums, 6 Live, 13 Compilations, 12 Singles EPs, 2 Box Sets (142 CD). Год, дата выхода: 1970-2016. СТРАНА: Aston, Birmingham, England. ТОЧНЫЙ ЖАНР(Ы): Hard Rock, Heavy Metal. ЛЕЙБЛ: Vertigo, Castle, Warner Bros, Sanctuary, . ПРОДОЛЖИТЕЛЬНОСТЬ: 105:47:29. РЕЙТИНГ: . 1, 14. ГОЛОСОВАТЬ: 1. 2.

Название: Studio Albums Исполнитель: Black Sabbath Год: 1970-2013 Жанр: Hard rock, heavi metal Страна: Англия Продолжительность: 13:57:48 Формат/Кодек: FLAC Битрейт аудио: Lossless Официальный сайт. 1970 Black Sabbath 01. Black Sabbath - 6:20 02. The Wizard - 4:23 03. Behind the Wall of Sleep - 3:38 04. . 6:06 05. Evil Woman - 3:26 06.

Кодек: FLAC Битрейт: Lossless Тип рипа: image . ue, tracks+. Heaven And Hell (6:59) 05. Wishing Well (4:08) 06. Die Young (4:46) 07. Walk Away (4:26) 08. Описание: Black Sabbath - британская рок-группа, образованная в Бирмингеме, Англия, в 1968 году и оказавшая заметное влияние на развитие рок-музыки, прежде всего, хеви-метал. Наряду с "Deep Purple" и "Led Zeppelin" эта команда входит в "большую тройку хард-рока" и является прародительницей таких стилей как хэви- и дум-метал. Треклист: Список альбомов: 1970 - Black Sabbath 1970 - Paranoid 1971 - Master Of Reality Трек лист: Studio Albums.

Sabbath - Black Sabbath 2. Black Sabbath - The Wizard 3. Black Sabbath - . Black Sabbath – 13. Posted in Lossless.

Black Sabbath - Black Sabbath 2. 4. Black Sabbath - Evil Woman (Don't Play Your Games With Me) 5. Black Sabbath - Wicked World 6. Black Sabbath - War Pigs 7. Black Sabbath - Paranoid 8. Black Sabbath - Planet Caravan Black Sabbath – 13.

Black Sabbath – 13 (2013) FLAC. Black Sabbath - Iron Man: The Best of Black Sabbath (2012)

Performer: Black Sabbath Album: Best Of Label: Universal Music.

Формат: FLAC, (tracks . ue), lossless Год выпуска: 1983 Страна: England Жанр: Classic Rock, Heavy Metal Продолжительность: 01:38:35 Описание: Треклист.

Black Sabbath, 83 bootlegs Жанр: Heavy Metal Аудиокодек: FLAC & WAVPack & APE Тип рипа: tracks & image+. cue Битрейт аудио: lossless. 07 Early Demos 1969 - Earth Studio Sessions. Продолжительность: 17 мин. 17 сек.

by Ramasutra
:::->Cover<-:::

:::->Dati Album<-:::
Autore:Black Sabbath
Titolo: The Best Of...
Anno: 2000
Genere: Rock
Etichetta:Ray Power
fonte cd /originale /cdda
Cover : Incluse
:::->Tracklist<-:::
Disc: 1
1. Black Sabbath
2. Wizard
3. N.I.B.
4. Evil Woman (Don't Play Your Games With Me)
5. Wicked World
6. War Pigs
7. Paranoid
8. Planet Caravan
9. Iron Man
10. Electric Funeral
11. Fairies Wear Boots
12. Sweet Leaf
13. Embryo
14. Children Of The Grave
15. Lord Of This World
16. Into The Void
Disc: 2
1. Tomorrow's Dream
2. Supernaut
3. Snowblind
4. Sabbath Bloody Sabbath
5. Killing Yourself To Live
6. Spiral Architect
7. Hole In The Sky
8. Don't Start (Too Late)
9. Symptom Of The Universe
10. Am I Going Insane
11. Dirty Woman
12. Never Say Die
13. Hard Road
14. Heaven And Hell
15. Turn Up The Night
16. Dark/Zero The Hero

Code:


Exact Audio Copy V0.99 prebeta 3 from 28. July 2007
EAC extraction logfile from 22. May 2008, 13:09
Black sabbath / The Best of Black Sabbath (CD 1)
Used drive : _NEC DVD_RW ND-3550A Adapter: 5 ID: 0
Read mode : Secure
Utilize accurate stream : Yes
Defeat audio cache : Yes
Make use of C2 pointers : No
Read offset correction : 48
Overread into Lead-In and Lead-Out : No
Fill up missing offset samples with silence : Yes
Delete leading and trailing silent blocks : No
Null samples used in CRC calculations : No
Used interface : Installed external ASPI interface
Used output format : User Defined Encoder
Selected bitrate : 768 kBit/s
Quality : High
Add ID3 tag : No
Command line compressor : C:ProgrammiExact Audio CopyFLACFLAC.EXE
Additional command line options : -6 -V -T "ARTIST=%a" -T "TITLE=%t" -T "ALBUM=%g" -T "DATE=%y" -T "TRACKNUMBER=%n" -T "GENRE=%m" -T "COMMENT=%e" %s -o %d
TOC of the extracted CD
Track | Start | Length | Start sector | End sector
-
1 | 0:00.00 | 6:19.67 | 0 | 28491
2 | 6:19.67 | 4:23.73 | 28492 | 48289
3 | 10:43.65 | 6:05.50 | 48290 | 75714
4 | 16:49.40 | 3:21.40 | 75715 | 90829
5 | 20:11.05 | 4:45.57 | 90830 | 112261
6 | 24:56.62 | 7:56.40 | 112262 | 148001
7 | 32:53.27 | 2:49.63 | 148002 | 160739
8 | 35:43.15 | 4:27.27 | 160740 | 180791
9 | 40:10.42 | 5:56.35 | 180792 | 207526
10 | 46:07.02 | 4:48.63 | 207527 | 229189
11 | 50:55.65 | 6:13.37 | 229190 | 257201
12 | 57:09.27 | 5:04.50 | 257202 | 280051
13 | 62:14.02 | 0:28.13 | 280052 | 282164
14 | 62:42.15 | 5:17.07 | 282165 | 305946
15 | 67:59.22 | 5:27.08 | 305947 | 330479
16 | 73:26.30 | 6:11.25 | 330480 | 358329
Range status and errors
Selected range
Filename D:Documents and Settingssalvo.SN116508160310DocumentiBlack sabbath - The Best of Black Sabbath (CD 1).wav
Peak level 97.7 %
Range quality 99.9 %
Test CRC D221D3C6
Copy CRC D221D3C6
Copy OK
No errors occurred
AccurateRip summary
Track 1 cannot be verified as accurate (confidence 25) [0A1C3C4B], AccurateRip returned [B463B417]
Track 2 cannot be verified as accurate (confidence 26) [96DAF169], AccurateRip returned [0D598689]
Track 3 cannot be verified as accurate (confidence 28) [DAC97988], AccurateRip returned [72CFB822]
Track 4 cannot be verified as accurate (confidence 26) [AB7417E0], AccurateRip returned [F2F6B39F]
Track 5 cannot be verified as accurate (confidence 26) [A9E9577C], AccurateRip returned [7000218E]
Track 6 cannot be verified as accurate (confidence 26) [120C9115], AccurateRip returned [0A119237]
Track 7 cannot be verified as accurate (confidence 26) [18D92CEF], AccurateRip returned [8E7DFA63]
Track 8 cannot be verified as accurate (confidence 26) [64EB657B], AccurateRip returned [5CFE2ACD]
Track 9 cannot be verified as accurate (confidence 26) [D8770C1F], AccurateRip returned [18381CB3]
Track 10 cannot be verified as accurate (confidence 26) [FB7083BF], AccurateRip returned [27B4DDBA]
Track 11 cannot be verified as accurate (confidence 26) [777CA3E9], AccurateRip returned [8A10753A]
Track 12 cannot be verified as accurate (confidence 26) [E03AEDF0], AccurateRip returned [FDA72B4B]
Track 13 cannot be verified as accurate (confidence 26) [DED53D7D], AccurateRip returned [1DCD3745]
Track 14 cannot be verified as accurate (confidence 26) [23690A12], AccurateRip returned [F4F09FCC]
Track 15 cannot be verified as accurate (confidence 24) [C86799D1], AccurateRip returned [246DB04D]
Track 16 cannot be verified as accurate (confidence 22) [3CFF7EBF], AccurateRip returned [DFECE740]
No tracks could be verified as accurate
You may have a different pressing from the one(s) in the database
End of status report
-
Exact Audio Copy V0.99 prebeta 3 from 28. July 2007
EAC extraction logfile from 22. May 2008, 13:51
Black sabbath / The best of black sabbath (CD 2)
Used drive : _NEC DVD_RW ND-3550A Adapter: 5 ID: 0
Read mode : Secure
Utilize accurate stream : Yes
Defeat audio cache : Yes
Make use of C2 pointers : No
Read offset correction : 48
Overread into Lead-In and Lead-Out : No
Fill up missing offset samples with silence : Yes
Delete leading and trailing silent blocks : No
Null samples used in CRC calculations : No
Used interface : Installed external ASPI interface
Used output format : User Defined Encoder
Selected bitrate : 768 kBit/s
Quality : High
Add ID3 tag : No
Command line compressor : C:ProgrammiExact Audio CopyFLACFLAC.EXE
Additional command line options : -6 -V -T "ARTIST=%a" -T "TITLE=%t" -T "ALBUM=%g" -T "DATE=%y" -T "TRACKNUMBER=%n" -T "GENRE=%m" -T "COMMENT=%e" %s -o %d
TOC of the extracted CD
Track | Start | Length | Start sector | End sector
-
1 | 0:00.00 | 3:08.70 | 0 | 14169
2 | 3:08.70 | 4:43.52 | 14170 | 35446
3 | 7:52.47 | 5:27.73 | 35447 | 60044
4 | 13:20.45 | 5:44.67 | 60045 | 85911
5 | 19:05.37 | 5:40.28 | 85912 | 111439
6 | 24:45.65 | 5:30.47 | 111440 | 136236
7 | 30:16.37 | 3:59.58 | 136237 | 154219
8 | 34:16.20 | 0:49.37 | 154220 | 157931
9 | 35:05.57 | 6:31.03 | 157932 | 187259
10 | 41:36.60 | 4:17.07 | 187260 | 206541
11 | 45:53.67 | 7:10.25 | 206542 | 238816
12 | 53:04.17 | 3:49.03 | 238817 | 255994
13 | 56:53.20 | 6:04.17 | 255995 | 283311
14 | 62:57.37 | 6:54.35 | 283312 | 314396
15 | 69:51.72 | 3:40.58 | 314397 | 330954
16 | 73:32.55 | 5:44.32 | 330955 | 356786
Range status and errors
Selected range
Filename D:Documents and Settingssalvo.SN116508160310DocumentiBlack sabbath - The best of black sabbath (CD 2).wav
Peak level 98.5 %
Range quality 99.9 %
Test CRC 246AF498
Copy CRC 246AF498
Copy OK
No errors occurred
AccurateRip summary
Track 1 cannot be verified as accurate (confidence 32) [7F4B21C5], AccurateRip returned [3351123C]
Track 2 cannot be verified as accurate (confidence 31) [A6F74FA4], AccurateRip returned [DDD6DFA9]
Track 3 cannot be verified as accurate (confidence 31) [7CBC9403], AccurateRip returned [E9457F2E]
Track 4 cannot be verified as accurate (confidence 32) [8415EC4A], AccurateRip returned [94867D1B]
Track 5 cannot be verified as accurate (confidence 33) [7E98AEA7], AccurateRip returned [76186368]
Track 6 cannot be verified as accurate (confidence 32) [1795CFAB], AccurateRip returned [2AF9515D]
Track 7 cannot be verified as accurate (confidence 31) [F7663B2B], AccurateRip returned [50E883B8]
Track 8 cannot be verified as accurate (confidence 31) [2DDD373B], AccurateRip returned [164EF266]
Track 9 cannot be verified as accurate (confidence 32) [D8CC026F], AccurateRip returned [5CDC704D]
Track 10 cannot be verified as accurate (confidence 31) [351224A1], AccurateRip returned [E9B338FF]
Track 11 cannot be verified as accurate (confidence 32) [24E8D509], AccurateRip returned [449006A6]
Track 12 cannot be verified as accurate (confidence 32) [FC3EDD19], AccurateRip returned [927E1CE4]
Track 13 cannot be verified as accurate (confidence 32) [441DC0EE], AccurateRip returned [C1BEE98E]
Track 14 cannot be verified as accurate (confidence 32) [870C7FFA], AccurateRip returned [8A62021B]
Track 15 cannot be verified as accurate (confidence 32) [67F69955], AccurateRip returned [4B680A0A]
Track 16 cannot be verified as accurate (confidence 32) [6F383A94], AccurateRip returned [C2247DFA]
No tracks could be verified as accurate
You may have a different pressing from the one(s) in the database
End of status report
Related music:
Black Sabbath - The Best Of FLAC Alien4 2006 download Black Sabbath - The Best Of FLAC Alien4 2006
Lossless
English
1.0 GB
4.2
/images/5/1/black-sabbath-the-best-of-flac-alien4-2006.jpg
Black Sabbath The Dio Years FLAC 2007 download Black Sabbath The Dio Years FLAC 2007
Lossless
English
541.3 MB
4.1
/images/5/6/black-sabbath-the-dio-years-flac-2007.jpg
Black Sabbath 13 Deluxe Edition - 2013 Ehhhh [email protected] download Black Sabbath 13 Deluxe Edition - 2013 Ehhhh [email protected]
MP3
English
184.3 MB
4.5
/images/5/1/black-sabbath-13-deluxe-edition-2013-ehhhh-mp340320.jpg
Black Sabbath-Dehumanizer Eac Flac Cue Rock City 1992 UF SPG download Black Sabbath-Dehumanizer Eac Flac Cue Rock City 1992 UF SPG
Lossless
English
356.5 MB
4.7
/images/5/4/black-sabbath-dehumanizer-eac-flac-cue-rock-city-1992-uf-spg.jpg
Black Sabbath - The Ozzy Osbourne Years 2CD set by matesio FLAC 1997 download Black Sabbath - The Ozzy Osbourne Years 2CD set by matesio FLAC 1997
Lossless
English
898.7 MB
4.4
/images/5/9/black-sabbath-the-ozzy-osbourne-years-2cd-set-by-matesio-flac-1997.jpg
Black Sabbath The Ultimate Collection Remastered - 2016 Flac-Lossless download Black Sabbath The Ultimate Collection Remastered - 2016 Flac-Lossless
Lossless
English
992.9 MB
4.1
/images/5/3/black-sabbath-the-ultimate-collection-remastered-2016-flac-lossless.jpg
Surf Sabbath - 2017-04-28, Florence, MA Black Sabbath / Surf Tribute Band download Surf Sabbath - 2017-04-28, Florence, MA Black Sabbath / Surf Tribute Band
Lossless
English
299.4 MB
4.7
/images/5/3/surf-sabbath-2017-04-282c-florence2c-ma-black-sabbath-2f-surf-tribute-band.jpg
Black Sabbath- We Sold Our Sould For Rock 'N' Roll download Black Sabbath- We Sold Our Sould For Rock 'N' Roll
Album
English
135.3 MB
4.3
/images/5/8/black-sabbath-we-sold-our-sould-for-rock-5c27n5c27-roll.jpg
Black Sabbath - 1970 FLAC download Black Sabbath - 1970 FLAC
Lossless
English
263.1 MB
4.0
/images/5/4/black-sabbath-1970-flac-.jpg