Files 42316
» » Of Monsters and Men - FEVER DREAM 24bit Hi-Res 2019
Language: English
Size: 904.8 MB
Votes: 070
Downloaded: 160
Category: Lossless
Format: MP3, FLAC
4.4

File list

Of Monsters and Men - FEVER DREAM (2019) [24bit Hi-Res]
  • 01 - Alligator.flac (69.1 MB)
  • 02 - Ahay.flac (63.3 MB)
  • 03 - Róróró.flac (94.4 MB)
  • 04 - Waiting For The Snow.flac (74.8 MB)
  • 05 - Vulture, Vulture.flac (66.8 MB)
  • 06 - Wild Roses.flac (91.0 MB)
  • 07 - Stuck In Gravity.flac (102.3 MB)
  • 08 - Sleepwalker.flac (76.5 MB)
  • 09 - Wars.flac (85.0 MB)
  • 10 - Under A Dome.flac (99.4 MB)
  • 11 - Soothsayer.flac (81.8 MB)
  • [TGx]Downloaded from torrentgalaxy.org .txt (0.6 KB)
  • cover.jpg (357.3 KB)
  • dr14.txt (1.3 KB)
  • Torrent Downloaded from Glodls.to.txt (0.2 KB)
  • Torrent downloaded from limetorrents.cc.txt (0.1 KB)
  • Torrent Downloaded from worldwidetorrents.to (0.1 KB)

Leaked Release - March 11th, 2019 Genre - Post-Hardcore Quality - MP3, 320 kbps CBR, FLAC Tracklist: 1. Lonely World Download Support! .

With Fever Dream, Of Monsters and Men took a chance and rediscovered their creativity, embarking in a colorful . I even dare say that they changed the style of their music a bit. Fever Dream is no longer – like its predecessors – a folk-pop album.

With Fever Dream, Of Monsters and Men took a chance and rediscovered their creativity, embarking in a colorful and bold direction without sacrificing their heart and soul in the process. 63. Experiments are fun! But they’re only worth their while when the results make sense. There are less lively sounds and chanted chorus here, but more reflection, melodies, keyboard instruments and distorted guitars.

Of Monsters And Men - Wild Roses (2019). Of Monsters and Men - FEVER DREAM (2019).

ИСПОЛНИТЕЛЬ: Of Monsters And Men. Альбом, название: fever dream. 5 июня 2015 Indie Rock. Год, дата выхода: 2019. СТРАНА: Iceland (Reykjavík). Of Monsters And Men - My Head Is An Animal (2012). 21 октября 2012 Indie Rock Folk Other Pop. 1575803470. Of Monsters And Men - FEVER DREAM (lossless, 2019) - скачать торрент бесплатно. Скачать альбом Of Monsters And Men - FEVER DREAM (lossless, 2019) бесплатно и без регистрации через торрент в Lossless.

Of Monsters and Men – Fever Dream (2019) . angel21, Jul 24, 2019, in forum: Albums (lossless).

Sampling rate: 96000 Hz Average bitrate: 3118kbs Bits per sample: 24 bit. Files: Of Monsters and Men - FEVER DREAM (2019) [24bit. Files: Of Monsters and Men - FEVER DREAM (2019). flac (6. MB). 02 - Ahay.

Of Monsters And Men have announced details of their long-awaited third album ‘Fever Dream’. There are still a lot of dark corners, of course. Check out our interview with singer Nanna Bryndis Hilmarsdóttir below. Following the release of comeback track ‘Alligator‘ last week, the Icelandic band have confirmed that ‘Fever Dream’ will arrive on July 26. The main inspiration behind ‘Alligator’ was a drive and an energy, Nanna told NME. It wasn’t necessarily what I was feeling at that moment, but I wanted to feel strong. Of Monsters And Men, 2019.

Prices may vary for AK and H.  . Learn more about free shipping. Of Monsters & Men - Fever Dream - New CD Album 2019 Track List 1. Alligator - Of Monsters and Men 2. Ahay - Of Monsters and Men 3. Róróró - Of Monsters and Men 4. Waiting for the Snow - Of Monsters and Men 5. Vulture, Vulture - Of Monsters and Men 6. Wild Roses - Of Monsters and Men 7. Stuck in Gravity - Of Monsters and Men 8. Sleepwalker - Of. Monsters and Men 9. Wars - Of Monsters and Men 10.


Quality-Lossless
Release-2019
Duration-00:40:30
File Size-948.8 MB
Genre-Alternative
Cover Size-1400px

Analyzed: FEVER DREAM / Artist: Of Monsters and Men
DR Peak RMS Duration Title [codec]
DR5 -0.04 dB -7.31 dB 3:04 01 - Alligator [flac]
DR7 -0.00 dB -9.44 dB 2:56 02 - Ahay [flac]
DR6 -0.03 dB -9.24 dB 4:20 03 - Róróró [flac]
DR9 -0.29 dB -13.58 dB 3:43 04 - Waiting For The Snow [flac]
DR6 -0.00 dB -8.56 dB 2:56 05 - Vulture, Vulture [flac]
DR6 -0.00 dB -8.66 dB 4:01 06 - Wild Roses [flac]
DR6 -0.12 dB -10.40 dB 4:24 07 - Stuck In Gravity [flac]
DR7 -0.00 dB -9.63 dB 3:18 08 - Sleepwalker [flac]
DR7 -0.01 dB -9.10 dB 3:37 09 - Wars [flac]
DR7 -0.56 dB -9.61 dB 4:33 10 - Under A Dome [flac]
DR7 -0.00 dB -8.76 dB 3:35 11 - Soothsayer [flac]
Number of files: 11
Official DR value: DR7
Sampling rate: 96000 Hz
Average bitrate: 3118kbs
Bits per sample: 24 bit

Related music:
Erasure - Wild! 88.2-24bit Edition 1989 Remastered download Erasure - Wild! 88.2-24bit Edition 1989 Remastered
Lossless
English
2.1 GB
4.3
/images/5/0/erasure-wild21-882-24bit-edition-1989-remastered.jpg
Of Monsters and Men - Fever Dream Mp3 2019 320 kbps download Of Monsters and Men - Fever Dream Mp3 2019 320 kbps
MP3
English
93.9 MB
4.3
/images/5/3/of-monsters-and-men-fever-dream-mp3-2019-320-kbps.jpg
Amanda Martinez - LIBRE 24bit Hi-Res 2019 download Amanda Martinez - LIBRE 24bit Hi-Res 2019
Lossless
English
527.0 MB
4.3
/images/5/7/amanda-martinez-libre-24bit-hi-res-2019.jpg
Bad Wolves - N A T I O N 24bit Hi-Res 2019 download Bad Wolves - N A T I O N 24bit Hi-Res 2019
Lossless
English
546.7 MB
4.8
/images/5/2/bad-wolves-n-a-t-i-o-n-24bit-hi-res-2019.jpg
Bishop Briggs - CHAMPION 24bit Hi-Res 2019 download Bishop Briggs - CHAMPION 24bit Hi-Res 2019
Lossless
English
358.0 MB
4.1
/images/5/7/bishop-briggs-champion-24bit-hi-res-2019.jpg
Bastille - Doom Days 24Bit 96000Hz 2019 download Bastille - Doom Days 24Bit 96000Hz 2019
Lossless
English
828.6 MB
4.0
/images/5/6/bastille-doom-days-24bit-96000hz-2019.jpg
Kings Of Leon - Aha Shake Heartbreak 192hz-24bit 2004 Remastered 2019 download Kings Of Leon - Aha Shake Heartbreak 192hz-24bit 2004 Remastered 2019
Lossless
English
1.4 GB
4.7
/images/5/6/kings-of-leon-aha-shake-heartbreak-192hz-24bit-2004-remastered-2019.jpg
Aurora - A Different Kind Of Human – Step 2 24bit Hi-Res 2019 download Aurora - A Different Kind Of Human – Step 2 24bit Hi-Res 2019
Lossless
English
491.0 MB
4.7
/images/5/4/aurora-a-different-kind-of-human-e28093-step-2-24bit-hi-res-2019.jpg
banks - III 24bit Hi-Res 2019 download banks - III 24bit Hi-Res 2019
Lossless
English
568.1 MB
4.1
/images/5/1/banks-iii-24bit-hi-res-2019.jpg