Files 42316
» » Astor Piazzolla - Tango Em HI FI Flac Cue
Language: Spanish
Size: 193.0 MB
Votes: 109
Downloaded: 57
Category: Lossless
Format: MP3, FLAC
4.0

File list

Cover
  • Astor Piazzolla - Tango Em Hi-Fi - Back - By TntVillage.jpg (89.2 KB)
  • Astor Piazzolla - Tango Em Hi-Fi - CD - By TntVillage.gif (63.6 KB)
  • Astor Piazzolla - Tango Em Hi-Fi - Front - By TntVillage.jpg (88.0 KB)
  • (1) Tango Del Angel - Astor Piazzolla.flac (23.1 MB)
  • (10) Preparense - Astor Piazzolla.flac (16.1 MB)
  • (2) Melanconico Buenos Aires - Astor Piazzolla.flac (14.2 MB)
  • (3) Loca Bohemia - Astor Piazzolla.flac (21.3 MB)
  • (4) Siempre Paris - Astor Piazzolla.flac (20.0 MB)
  • (5) Tres Minutos Com La Realidad - Astor Piazzolla.flac (15.9 MB)
  • (6) La Cumparista - Astor Piazzolla.flac (19.3 MB)
  • (7) Fuimos - Astor Piazzolla.flac (25.3 MB)
  • (8) Del Bajo Fondo - Astor Piazzolla.flac (18.0 MB)
  • (9) Ispiracion - Astor Piazzolla.flac (19.7 MB)
  • Astor Piazzolla - Tango em Hi Fi.log (11.7 KB)
  • Astor Piazzolla - Tango em Hi Fi.m3u8 (0.1 KB)
  • Tango em Hi Fi.cue (1.9 KB)
  • TntVillage.nfo (2.1 KB)

Presentacion: Astor Piazzolla Astor Piazzolla y su Quinteto, Astor Piazzolla: bandoneon - Pablo .

Presentacion: Astor Piazzolla Astor Piazzolla y su Quinteto, Astor Piazzolla: bandoneon - Pablo Zeigler: piano - Oscar Lopez Ruiz: guitara el. - Fernando Suarez Paz: violin - Hector Console: contrabajo.

Sometimes melancholic and always sensual, Piazzolla’s works found a magnificent balance between genres, styles and eras.

Tango Del Angel 2. Melanconico Buenos Aires 3. Loca Bohemia 4. Siempre Paris 5. Tres Minutos Com La Realidad 6. La Cumparista 7. Fuimos 8. Del Bajo Fondo 9. Ispiracion 10. Preparense. Sometimes melancholic and always sensual, Piazzolla’s works found a magnificent balance between genres, styles and eras.

Artist: Gerry Mulligan & Astor Piazzolla Album: Tango Nuevo Genre: Cool Label: Atlantic Released: 1987 Quality: FLAC (tracks+. cue) Tracklist: 20 years ago. Close your eyes and listen. Aire de Buenos Aires.

info o-em-HI-FI- Music. Tango em Hi F. ue2 KB. TntVillage. to Astor Piazzolla - Tango em HI FI Other. com Astor Piazzolla: Tango Em HI FI Music. am Astor Piazzolla - Tango em HI FI Adult. ch o-em-HI-FI- Other. eu Astor Piazzolla - Tango Em Hi Fi video.

Browse all Astor Piazzolla sheet music. Download for free in PDF, MIDI format, or print directly from our site. See new and popular Astor Piazzolla songs, uploaded by Musescore users, connect with a community of musicians who love to write and play music. In our catalog, you can find Astor Piazzolla sheet music for piano, drums, flute, saxophone, trumpet, guitar and almost any other instrument. Most popular Astor Piazzolla sheet music. All Astor Piazzolla sheet music. UPDATED Libertango by Astor Piazzolla for String Quartet.

Содержание индексной карты . UE). 01 00:00:00 TRACK 02 AUDIO TITLE "I. afe 1930" PERFORMER "Cecile Daroux - Pablo Marquez" FLAGS DCP INDEX 01 03:45:22 TRACK 03 AUDIO TITLE "III. Nightclub 1960" PERFORMER "Cecile Daroux - Pablo Marquez" FLAGS DCP INDEX 01 09:57:41 TRACK 04 AUDIO TITLE "IV.

cue) Bitrate:Lossless Total Time:02:02:55.


Artist...............: Astor Piazzolla
Album................: Tango em Hi Fi
Genre................: TangoJazz
Source...............: CD
Year.................: Original LP 1958 Remastered 2002
Ripper...............: Exact Audio Copy (Secure mode) & Asus CD-S520
Codec................: Free Lossless Audio Codec (FLAC)
Version..............: reference libFLAC 1.2.1 20070917
Quality..............: Lossless, (avg. compression: 53 %)
Channels.............: Stereo / 44100 HZ / 16 Bit
Tags.................: VorbisComment
Information..........: TntVillage
Ripped by............: leonenero on 18/09/2013
Posted by............: leonenero on 18/09/2013
News Server..........: news.astraweb.com
News Group(s)........: alt.binaries.sounds.flac.full_TntVillage
Included.............: NFO, M3U, LOG, CUE
Covers...............: Front Back CD
-
Tracklisting
-
1. Tango Del Angel [04.15]
2. Melanconico Buenos Aires [02.56]
3. Loca Bohemia [04.02]
4. Siempre Paris [03.26]
5. Tres Minutos Com La Realidad [03.05]
6. La Cumparista [03.20]
7. Fuimos[04.21]
8. Del Bajo Fondo [03.30]
9. Ispiracion [04.01]
10. Preparense [03.02]
Playing Time.........: 36.01
Total Size...........: 192,80 MB
Piazzola’s vision of the dance was so drastically different that his first innovative recordings stirred up a controversy. Preoccupied with breaking through different genres, the musician broadened his horizons and blended jazz, contemporary music and song with his tango.
Piazzola left a very distinctive music evoking laughter and tears, dance and contemplation. Sometimes melancholic and always sensual, Piazzolla’s works found a magnificent balance between genres, styles and eras.

Code:

Exact Audio Copy V1.0 beta 3 from 29. August 2011
EAC extraction logfile from 18. September 2013, 9:01
Astor Piazzolla / Tango em Hi Fi
Used drive : HL-DT-STDVDRAM GSA-T40N Adapter: 0 ID: 0
Read mode : Secure
Utilize accurate stream : Yes
Defeat audio cache : Yes
Make use of C2 pointers : No
Read offset correction : 667
Overread into Lead-In and Lead-Out : No
Fill up missing offset samples with silence : Yes
Delete leading and trailing silent blocks : No
Null samples used in CRC calculations : Yes
Used interface : Native Win32 interface for Win NT & 2000
Gap handling : Appended to previous track
Used output format : User Defined Encoder
Selected bitrate : 896 kBit/s
Quality : High
Add ID3 tag : No
Command line compressor : C:Program FilesExact Audio CopyFLACFLAC.EXE
Additional command line options : -8 -V -T "ARTIST=%artist%" -T "TITLE=%title%" -T "ALBUM=%albumtitle%" -T "DATE=%year%" -T "TRACKNUMBER=%tracknr%" -T "GENRE=%genre%" -T "COMMENT=%comment%" -T "BAND=%albuminterpret%" -T "ALBUMARTIST=%albuminterpret%" -T "COMPOSER=%composer%" %haslyrics%--tag-from-file=LYRICS="%lyricsfile%"%haslyrics% -T "DISCNUMBER=%cdnumber%" -T "TOTALDISCS=%totalcds%" -T "TOTALTRACKS=%numtracks%" %hascover%--picture="%coverfile%"%hascover% %source% -o %dest%
TOC of the extracted CD
Track | Start | Length | Start sector | End sector
-
1 | 0:00.00 | 4:15.05 | 0 | 19129
2 | 4:15.05 | 2:56.27 | 19130 | 32356
3 | 7:11.32 | 4:02.20 | 32357 | 50526
4 | 11:13.52 | 3:26.33 | 50527 | 66009
5 | 14:40.10 | 3:05.22 | 66010 | 79906
6 | 17:45.32 | 3:20.10 | 79907 | 94916
7 | 21:05.42 | 4:21.33 | 94917 | 114524
8 | 25:27.00 | 3:30.12 | 114525 | 130286
9 | 28:57.12 | 4:01.60 | 130287 | 148421
10 | 32:58.72 | 3:02.65 | 148422 | 162136
Track 1
Filename H:MY EAC[.FLAC]Astor Piazzolla - Tango Em Hi Fi Tango Del Angel - Astor Piazzolla.flac
Pre-gap length 0:00:02.00
Peak level 99.9 %
Extraction speed 1.8 X
Track quality 100.0 %
Test CRC 6D425557
Copy CRC 6D425557
Track not present in AccurateRip database
Copy OK
Track 2
Filename H:MY EAC[.FLAC]Astor Piazzolla - Tango Em Hi Fi Melanconico Buenos Aires - Astor Piazzolla.flac
Pre-gap length 0:00:01.53
Peak level 99.9 %
Extraction speed 2.3 X
Track quality 100.0 %
Test CRC 9EDC87A7
Copy CRC 9EDC87A7
Track not present in AccurateRip database
Copy OK
Track 3
Filename H:MY EAC[.FLAC]Astor Piazzolla - Tango Em Hi Fi Loca Bohemia - Astor Piazzolla.flac
Pre-gap length 0:00:01.53
Peak level 99.9 %
Extraction speed 2.4 X
Track quality 100.0 %
Test CRC 373C25EA
Copy CRC 373C25EA
Track not present in AccurateRip database
Copy OK
Track 4
Filename H:MY EAC[.FLAC]Astor Piazzolla - Tango Em Hi Fi Siempre Paris - Astor Piazzolla.flac
Pre-gap length 0:00:01.56
Peak level 99.9 %
Extraction speed 1.5 X
Track quality 100.0 %
Test CRC 23B74ABB
Copy CRC 23B74ABB
Track not present in AccurateRip database
Copy OK
Track 5
Filename H:MY EAC[.FLAC]Astor Piazzolla - Tango Em Hi Fi Tres Minutos Com La Realidad - Astor Piazzolla.flac
Pre-gap length 0:00:01.57
Peak level 99.9 %
Extraction speed 2.6 X
Track quality 100.0 %
Test CRC 9DC97202
Copy CRC 9DC97202
Track not present in AccurateRip database
Copy OK
Track 6
Filename H:MY EAC[.FLAC]Astor Piazzolla - Tango Em Hi Fi La Cumparista - Astor Piazzolla.flac
Pre-gap length 0:00:01.56
Peak level 99.9 %
Extraction speed 1.4 X
Track quality 100.0 %
Test CRC 68AA2F08
Copy CRC 68AA2F08
Track not present in AccurateRip database
Copy OK
Track 7
Filename H:MY EAC[.FLAC]Astor Piazzolla - Tango Em Hi Fi Fuimos - Astor Piazzolla.flac
Pre-gap length 0:00:01.56
Peak level 100.0 %
Extraction speed 2.6 X
Track quality 100.0 %
Test CRC DE2E3E4F
Copy CRC DE2E3E4F
Track not present in AccurateRip database
Copy OK
Track 8
Filename H:MY EAC[.FLAC]Astor Piazzolla - Tango Em Hi Fi Del Bajo Fondo - Astor Piazzolla.flac
Pre-gap length 0:00:01.57
Peak level 98.0 %
Extraction speed 0.8 X
Track quality 99.9 %
Test CRC 2799A3FD
Copy CRC 2799A3FD
Track not present in AccurateRip database
Copy OK
Track 9
Filename H:MY EAC[.FLAC]Astor Piazzolla - Tango Em Hi Fi Ispiracion - Astor Piazzolla.flac
Pre-gap length 0:00:01.56
Peak level 100.0 %
Extraction speed 0.7 X
Track quality 100.0 %
Test CRC 971003BE
Copy CRC 971003BE
Track not present in AccurateRip database
Copy OK
Track 10
Filename H:MY EAC[.FLAC]Astor Piazzolla - Tango Em Hi Fi Preparense - Astor Piazzolla.flac
Pre-gap length 0:00:01.56
Peak level 99.0 %
Extraction speed 0.8 X
Track quality 100.0 %
Test CRC 1128F2FB
Copy CRC 1128F2FB
Track not present in AccurateRip database
Copy OK
None of the tracks are present in the AccurateRip database
No errors occurred
End of status report
==== Log checksum 7E3A96A254C1CE90B6266BE55B28FD0192B6AD4C5A8C7D183F5FEF07A7DCEC54 ====
Related music:
a-ha - Collection Flac download a-ha - Collection Flac
Lossless
English
339.8 MB
4.5
/images/5/8/a-ha-collection-flac-.jpg
Santana - The Best Of Flac Cue download Santana - The Best Of Flac Cue
Lossless
English
381.8 MB
4.9
/images/5/0/santana-the-best-of-flac-cue-.jpg
101 Strings Orchestra - Cole Porter Flac download 101 Strings Orchestra - Cole Porter Flac
Lossless
English
194.4 MB
4.6
/images/5/9/101-strings-orchestra-cole-porter-flac-.jpg
Lucio Dalla - A Modo Mio - The Best Of Flac download Lucio Dalla - A Modo Mio - The Best Of Flac
Lossless
Italian
376.3 MB
4.6
/images/5/9/lucio-dalla-a-modo-mio-the-best-of-flac-.jpg
Lucio Dalla - Come è profondo il mare Flac 1977 download Lucio Dalla - Come è profondo il mare Flac 1977
Lossless
Italian
232.0 MB
4.3
/images/5/0/lucio-dalla-come-c3a8-profondo-il-mare-flac-1977.jpg
Vinícius de Moraes con Maria Creuza y Toquinho - Grabado en Buenos Aires Flac download Vinícius de Moraes con Maria Creuza y Toquinho - Grabado en Buenos Aires Flac
Lossless
Portuguese
270.6 MB
4.1
/images/5/4/vinc3adcius-de-moraes-con-maria-creuza-y-toquinho-grabado-en-buenos-aires-flac-.jpg
The Doors - L A Woman Flac Cue download The Doors - L A Woman Flac Cue
Lossless
English
280.9 MB
4.1
/images/5/8/the-doors-l-a-woman-flac-cue-.jpg
Francesco De Gregori - All The Best Flac Cue download Francesco De Gregori - All The Best Flac Cue
Lossless
Italian
438.8 MB
4.6
/images/5/0/francesco-de-gregori-all-the-best-flac-cue-.jpg
Gotan Project - Tango 3 0 Flac download Gotan Project - Tango 3 0 Flac
Lossless
English
265.3 MB
4.2
/images/5/1/gotan-project-tango-3-0-flac-.jpg