Files 42316
» » Avril Lavigne - Head Above Water BMG ‎– 538441821
Language: English
Size: 318.9 MB
Votes: 215
Downloaded: 40
Category: Lossless
Format: MP3, FLAC
4.9

File list

Avril Lavigne - Head Above Water
  • 03. I Fell In Love With The Devil.flac (32.2 MB)
  • 02. Birdie.flac (29.9 MB)
  • 01. Head Above Water.flac (29.9 MB)
  • 04. Tell Me It's Over.flac (24.7 MB)
  • 05. Dumb Blonde.flac (27.2 MB)
  • 06. It Was In Me.flac (27.4 MB)
  • 07. Souvenir.flac (22.6 MB)
  • 08. Crush.flac (27.8 MB)
  • 09. Goddess.flac (26.2 MB)
  • 10. Bigger Wav.flac (22.0 MB)
  • 11. Love Me Insane.flac (21.2 MB)
  • 12. Warrior.flac (27.7 MB)
  • foo_dr.txt (1.4 KB)

God keep my head above water Don’t let me drown It gets harder I’ll meet you there at the altar As I fall down to my knees Don’t let me drown Don’t let me drown

God keep my head above water Don’t let me drown It gets harder I’ll meet you there at the altar As I fall down to my knees Don’t let me drown Don’t let me drown. So pull me up from down below ‘Cause I’m underneath the undertow Come dry me off and hold me close I need you now I need you most. God keep my head above water Don’t let me drown It gets harder I’ll meet you there at the altar As I fall down to my knees Don’t let me drown Don’t let me drown Don’t let me drown Keep my head above water above water

Head Above Water ‎(12xFile, MP3, Album, 320). BMG Rights Management.

Avril Lavigne 컬렉션을 완성하세요. Head Above Water ‎(12xFile, MP3, Album, 320). 538441782, 4050538441789. Head Above Water ‎(CD, Album).

Head above Water (оригинал Аvril Lavigne). На плаву (перевод Маргарита Беженарь). I've gotta keep the calm before the storm. I won't let this put me overboard. Я не останусь за бортом. God, keep my head above water. Боже, удержи меня на плаву. Я должна быть спокойна перед бурей, I don't want less, I don't want more. Я не хочу большего, я не хочу меньшего. Must bar the windows and the doors. It gets harder, Становится все сложней. I'll meet you there at the altar.

Head Above Water is the sixth studio album by Canadian singer Avril Lavigne. It was released on February 15, 2019, through BMG Rights Management

Head Above Water is the sixth studio album by Canadian singer Avril Lavigne. It was released on February 15, 2019, through BMG Rights Management. It is Lavigne's first studio release since her self-titled fifth studio album (2013), marking the longest gap between two of her studio albums.

HEAD ABOVE WATER was written while coming out of the darkness surrounding her 2014 Lyme Disease diagnosis. Global superstar AVRIL LAVIGNE is back with her first album in 5 years. In the midst of her battle, she sat behind a piano and sang past the pain, architecting the early framework for her new album. HEAD ABOVE WATER was written while coming out of the darkness surrounding her 2014 Lyme Disease diagnosis.

Head Above Water Lyrics: I've gotta keep the calm before the storm, I don't want less, I don't want .

Head Above Water Lyrics: I've gotta keep the calm before the storm, I don't want less, I don't want more, Must bar the windows and the doors, To keep me safe, to keep me warm, Yeah, my life is what I'. God, keep my head above water Don’t let me drown, it gets harder I'll meet you there, at the altar As I fall down to my knees Don't let me drown, drown, drown Don't let me, don’t let me, don't let me drown Don't let me drown, drown, drown (I keep my head above water, above water) Don't let me, don't let me, don't let me drown.

Head Above Water" is the first track and the lead single from Avril Lavigne's sixth studio album of the same name. Written by Lavigne with Travis Clark and Stephan Moccio, and produced by the latter, the song was released on September 19, 2018 through BMG Rights Management.

HEAD ABOVE WATER showed great promise. The production is even better than most of the album.

Exclusive discount for Prime members. Sample this album Artist (Sample). 1. 30. Head Above Water. HEAD ABOVE WATER showed great promise. Yet, unlike the vast majority of Avril Lavigne songs, this gets kind of old and boring rather quickly.

Head Above Water - Avril Lavigne. Открывайте новую музыку каждый день. Лента с персональными рекомендациями и музыкальными новинками, радио, подборки на любой вкус, удобное управление своей коллекцией

Head Above Water - Avril Lavigne. Лента с персональными рекомендациями и музыкальными новинками, радио, подборки на любой вкус, удобное управление своей коллекцией. Миллионы композиций бесплатно и в хорошем качестве.


foobar2000 1.4.5 / Dynamic Range Meter 1.1.1

Analyzed: Avril Lavigne / Head Above Water

DR         Peak         RMS     Duration Track

DR9       -7.85 dB   -19.39 dB      3:34 01-Head Above Water
DR9       -6.55 dB   -18.41 dB      3:29 02-Birdie
DR9       -7.60 dB   -20.32 dB      4:09 03-I Fell In Love With The Devil
DR9       -7.06 dB   -19.00 dB      3:03 04-Tell Me It's Over
DR9       -7.77 dB   -18.73 dB      3:04 05-Dumb Blonde
DR8       -6.09 dB   -19.48 dB      3:35 06-It Was In Me
DR9       -7.06 dB   -19.87 dB      2:54 07-Souvenir
DR8       -7.57 dB   -19.02 dB      3:28 08-Crush
DR10      -9.16 dB   -23.58 dB      3:36 09-Goddess
DR9       -7.43 dB   -20.33 dB      2:50 10-Bigger Wav
DR9       -7.37 dB   -19.75 dB      2:54 11-Love Me Insane
DR8       -8.05 dB   -19.43 dB      3:40 12-Warrior

Number of tracks:  12
Official DR value: DR9
Samplerate:        96000 Hz
Channels:          2
Bits per sample:   24
Bitrate:           1055 kbps
Codec:             FLAC
================================================================================

Related music:
Req Karaoke, SunFly World Stars SFWS143 Avril Lavigne @128, from BJtheDJ download Req Karaoke, SunFly World Stars SFWS143 Avril Lavigne @128, from BJtheDJ
MP3
English
61.1 MB
4.6
/images/5/3/req-karaoke2c-sunfly-world-stars-sfws143-avril-lavigne-401282c-from-bjthedj.jpg
Avril Lavigne - Head Above Water FLAC Quality Album 2019 download Avril Lavigne - Head Above Water FLAC Quality Album 2019
Lossless
English
290.7 MB
4.2
/images/5/6/avril-lavigne-head-above-water-flac-quality-album-2019.jpg
Avril Lavigne - Dumb Blonde Mp3 - 320kbps feat. Nicki Minaj Single 2019 download Avril Lavigne - Dumb Blonde Mp3 - 320kbps feat. Nicki Minaj Single 2019
MP3
English
10.8 MB
4.9
/images/5/7/avril-lavigne-dumb-blonde-mp3-320kbps-feat-nicki-minaj-single-2019.jpg
Avril Lavigne - 2019 - Head Above Water [email protected] WWRG MORA Hi-Res download Avril Lavigne - 2019 - Head Above Water [email protected] WWRG MORA Hi-Res
Lossless
English
651.3 MB
4.1
/images/5/4/avril-lavigne-2019-head-above-water-flac40441khz24bit-wwrg-mora-hi-res-.jpg
Avril Lavigne - Head Above Water Mp3 Limited Edition 2019 download Avril Lavigne - Head Above Water Mp3 Limited Edition 2019
MP3
English
201.1 MB
4.6
/images/5/6/avril-lavigne-head-above-water-mp3-limited-edition-2019.jpg
Avril Lavigne – Head Above Water Transcode 2019 320 KBPS download Avril Lavigne – Head Above Water Transcode 2019 320 KBPS
Album
English
98.7 MB
4.9
/images/5/8/avril-lavigne-e28093-head-above-water-transcode-2019-320-kbps.jpg
Avril Lavigne - Avril Lavigne 320 2013 download Avril Lavigne - Avril Lavigne 320 2013
Album
English
120.6 MB
4.3
/images/5/8/avril-lavigne-avril-lavigne-320-2013.jpg
Avril Lavigne – Tell Me It’s Over Single Mp3 Song 320kbps Quality 2018 download Avril Lavigne – Tell Me It’s Over Single Mp3 Song 320kbps Quality 2018
Single
English
7.5 MB
4.2
/images/5/1/avril-lavigne-e28093-tell-me-ite28099s-over-single-mp3-song-320kbps-quality-2018.jpg
Avril Lavigne - The Best Damn Thing Flac 2007 download Avril Lavigne - The Best Damn Thing Flac 2007
Lossless
English
469.9 MB
4.4
/images/5/7/avril-lavigne-the-best-damn-thing-flac-2007.jpg