Files 42316
» » Crown The Empire - Sudden Sky Flac 2019
Language: English
Size: 239.2 MB
Votes: 433
Downloaded: 72
Category: Lossless
Format: MP3, FLAC
4.6

File list

Crown The Empire - Sudden Sky (2019) Flac
  • 01 - (X).flac (7.1 MB)
  • 02 - 20_20.flac (29.1 MB)
  • 03 - what i am.flac (23.4 MB)
  • 04 - BLURRY (out of place).flac (22.4 MB)
  • 05 - Red Pills.flac (29.5 MB)
  • 06 - MZRY.flac (27.4 MB)
  • 07 - Under the Skin.flac (21.1 MB)
  • 08 - SEQU3NCE.flac (25.5 MB)
  • 09 - March of the Ignorant.flac (23.2 MB)
  • 10 - Sudden Sky.flac (30.5 MB)
  • [TGx]Downloaded from torrentgalaxy.org .txt (0.6 KB)
  • cover.jpg (154.4 KB)
  • dr14.txt (1.3 KB)
  • Torrent Downloaded from Glodls.to.txt (0.2 KB)
  • Torrent downloaded from limetorrents.cc.txt (0.1 KB)
  • Torrent Downloaded from worldwidetorrents.to (0.1 KB)

Leaked Release - July 19, 2019 Genre - Post-Hardcore, Alternative Rock Quality - MP3, 320 kbps CBR, FLAC Tracklist: 1. (X) 2. 20/20 3. what i am. .Sudden Sky is great imo, with that bridge being relatively unique in the scene. A good album I think, just about what I expected.

Sudden Sky is great imo, with that bridge being relatively unique in the scene. Won't crack my top 10, but it'll get some spins and enjoyment.

ARTIST: Crown The Empire. FILE FORMAT: FLAC (tracks). ALBUM, TITLE: Sudden Sky. Release year, date: 2019. Country: USA. STYLE: Alternative Rock, Post-Hardcore.

Related News: Crown The Empire - Sudden Sky (2019) site to download free music, roylty free music, library music, royaltyfree music, free music downloads sites, stock music licensing.

Related News: Crown The Empire - Sudden Sky (2019). Alternative rock 21-09-2019, 16:50. Crown The Empire - Retrograde (2016). Atlantean Kodex & The Course of Empire (2019). Metal 14-09-2019, 14:24. Pony Bradshaw - Sudden Opera (2019) (24bit Hi-Res) FLAC (tracks). Pop 3-07-2019, 08:43. site to download free music, roylty free music, library music, royaltyfree music, free music downloads sites, stock music licensing.

Crown The Empire - What I Am (2018). Crown the Empire – Burn (Ellie Goulding Cover). Genre: Hardcore Country: USA Quality: mp3,320 Kbps Tracklist: The Let Down (Feat. Andy Leo of Crown The Empire). Genre: Post-Hardcore, Alternative Rock Country: USA Quality: MP3, 320 kbps. Crown the Empire - 20/20 (2018). Crown The Empire - Everything Breaks (2018). One Shot Thrill – The Let Down (Feat. Andy Leo of Crown The Empire) (2012).

Now playing: Maroon 5 Animals. 4 Non Blondes What's Up?

Sudden Sky is the fourth studio album by American metalcore band Crown the Empire. It was released on July 19, 2019 through Rise Records.

Sudden Sky is the fourth studio album by American metalcore band Crown the Empire. It is the band's first album not to feature vocalist David Escamilla since their EP Limitless, who departed from the group in January 2017. Andrew Rockhold – lead vocals. Brandon Hoover – guitars, backing vocals. Hayden Tree – bass, unclean vocals. Brent Taddie – drums, percussion. Additional personnel. Drew Fulk – production.

Group Crown the Empire recorded a new album named Sudden Sky, release date 19 июля 2019. Release Sudden Sky mixed and recorded on a music label Rise Records and will sound in the genre Post-Hardcore. Group Crown the Empire formed in the country United States.

Crown The Empire - The Resistance: Rise of the Runaways 0 0 20. SEQU3NCE 09. March of the Ignorant 10. Sudden Sky.

Style: Post-Hardcore.


Quality-Lossless
Release-2019
Duration-00:34:09
File Size-250.8 MB
Genre-Rock
Cover Size-1200px

Analyzed: Sudden Sky / Artist: Crown The Empire
DR Peak RMS Duration Title [codec]
DR4 -0.00 dB -9.84 dB 1:19 01 - (X) [flac]
DR5 -0.00 dB -7.39 dB 4:00 02 - 20/20 [flac]
DR5 -0.00 dB -6.93 dB 3:16 03 - what i am [flac]
DR6 -0.00 dB -8.56 dB 3:20 04 - BLURRY (out of place) [flac]
DR5 -0.00 dB -6.27 dB 3:46 05 - Red Pills [flac]
DR5 -0.03 dB -8.55 dB 4:04 06 - MZRY [flac]
DR5 -0.00 dB -7.99 dB 3:08 07 - Under the Skin [flac]
DR5 -0.00 dB -6.31 dB 3:18 08 - SEQU3NCE [flac]
DR6 -0.00 dB -8.38 dB 3:35 09 - March of the Ignorant [flac]
DR4 -0.00 dB -6.09 dB 4:20 10 - Sudden Sky [flac]
Number of files: 10
Official DR value: DR5
Sampling rate: 44100 Hz
Average bitrate: 960kbs
Bits per sample: 16 bit

Related music:
Erasure - Wild! 88.2-24bit Edition 1989 Remastered download Erasure - Wild! 88.2-24bit Edition 1989 Remastered
Lossless
English
2.1 GB
4.3
/images/5/0/erasure-wild21-882-24bit-edition-1989-remastered.jpg
Iggy Azalea - In My Defense Flac 2019 download Iggy Azalea - In My Defense Flac 2019
Lossless
English
212.0 MB
4.3
/images/5/9/iggy-azalea-in-my-defense-flac-2019.jpg
RuthAnne - Matters Of The Heart Flac 2019 download RuthAnne - Matters Of The Heart Flac 2019
Lossless
English
297.1 MB
4.6
/images/5/8/ruthanne-matters-of-the-heart-flac-2019.jpg
Kasabian - Empire 24bit Hi-Res 2006 download Kasabian - Empire 24bit Hi-Res 2006
Lossless
English
784.0 MB
4.3
/images/5/8/kasabian-empire-24bit-hi-res-2006.jpg
Dominic Sen - Visitor Flac 2019 download Dominic Sen - Visitor Flac 2019
Lossless
English
265.2 MB
4.0
/images/5/5/dominic-sen-visitor-flac-2019.jpg
Sabrina Carpenter - Singular Act II 2019 download Sabrina Carpenter - Singular Act II 2019
Lossless
English
199.0 MB
4.9
/images/5/2/sabrina-carpenter-singular-act-ii-2019.jpg
Kalie Shorr - Open Book Flac-was95 2019 download Kalie Shorr - Open Book Flac-was95 2019
Lossless
English
302.9 MB
4.8
/images/5/8/kalie-shorr-open-book-flac-was95-2019.jpg
Electric Guest - KIN Flac 2019 download Electric Guest - KIN Flac 2019
Lossless
English
233.2 MB
4.8
/images/5/2/electric-guest-kin-flac-2019.jpg
Pony Bradshaw - Sudden Opera 24 Bit Hi-Res 2019 download Pony Bradshaw - Sudden Opera 24 Bit Hi-Res 2019
Lossless
English
940.0 MB
4.9
/images/5/2/pony-bradshaw-sudden-opera-24-bit-hi-res-2019.jpg
Nona - Nona Flac 2019 download Nona - Nona Flac 2019
Lossless
English
279.8 MB
4.8
/images/noimage.jpg