Files 42316
» » Takako Nishizaki, Capella Istropolitana & Stephen Gunzenhauser - Vivaldi- The Four Seasons -was95 24bit Hi-Res 2014
Language: English
Size: 448.7 MB
Votes: 178
Downloaded: 50
Category: Lossless
Format: MP3, FLAC
4.8

File list

Takako Nishizaki, Capella Istropolitana & Stephen Gunzenhauser - Vivaldi- The Four Seasons (2014) [24bit Hi-Res]-was95
  • 01 - The Four Seasons, Violin Concerto in E Major, Op. 8 No. 1, RV 269 -Spring-- I. Allegro.flac (36.1 MB)
  • 02 - The Four Seasons, Violin Concerto in E Major, Op. 8 No. 1, RV 269 -Spring-- II. Largo e pianissimo sempre.flac (24.6 MB)
  • 03 - The Four Seasons, Violin Concerto in E Major, Op. 8 No. 1, RV 269 -Spring-- III. Danza pastorale- Allegro.flac (43.0 MB)
  • 04 - The Four Seasons, Violin Concerto in G Minor, Op. 8 No. 2, RV 315 -Summer-- I. Allegro non molto.flac (51.7 MB)
  • 05 - The Four Seasons, Violin Concerto in G Minor, Op. 8 No. 2, RV 315 -Summer-- II. Adagio - Presto.flac (23.3 MB)
  • 06 - The Four Seasons, Violin Concerto in G Minor, Op. 8 No. 2, RV 315 -Summer-- III. Presto.flac (31.4 MB)
  • 07 - The Four Seasons, Violin Concerto in F Major, Op. 8 No. 3, RV 293 -Autumn-- I. Allegro.flac (47.2 MB)
  • 08 - The Four Seasons, Violin Concerto in F Major, Op. 8 No. 3, RV 293 -Autumn-- II. Adagio molto.flac (25.4 MB)
  • 09 - The Four Seasons, Violin Concerto in F Major, Op. 8 No. 3, RV 293 -Autumn-- III. Allegro.flac (31.8 MB)
  • 10 - The Four Seasons, Violin Concerto in F Minor, Op. 8 No. 4, RV 297 -Winter-- I. Allegro non molto.flac (32.8 MB)
  • 11 - The Four Seasons, Violin Concerto in F Minor, Op. 8 No. 4, RV 297 -Winter-- II. Largo.flac (21.9 MB)
  • 12 - The Four Seasons, Violin Concerto in F Minor, Op. 8 No. 4, RV 297 -Winter-- III. Allegro.flac (30.4 MB)
  • 13 - Concerto for Strings in G Major, RV 151, -Alla Rustica-- I. Presto.flac (13.5 MB)
  • 14 - Concerto for Strings in G Major, RV 151, -Alla Rustica-- II. Adagio.flac (14.7 MB)
  • 15 - Concerto for Strings in G Major, RV 151, -Alla Rustica-- III. Allegro.flac (17.3 MB)
  • [TGx]Downloaded from torrentgalaxy.org .txt (0.6 KB)
  • booklet.pdf (3.3 MB)
  • cover.jpg (301.8 KB)
  • dr14.txt (2.8 KB)
  • Torrent Downloaded from Glodls.to.txt (0.2 KB)
  • Torrent downloaded from limetorrents.cc.txt (0.1 KB)
  • Torrent Downloaded from worldwidetorrents.to (0.1 KB)

Title: Vivaldi: The Four Seasons Year Of Release: 2017 Label: 2xHD Genre: Classical Quality: 24bit-44

Artist: Takako Nishizaki, Capella Istropolitana & Stephen Gunzenhauser Title: Vivaldi: The Four Seasons Year Of Release: 2017 Label: 2xHD Genre: Classical Quality: 24bit-44. 8 No. 1, RV 269 "Spring": III. Danza pastorale: Allegro 04:15 4. The Four Seasons, Violin Concerto in G Minor, Op. 2, RV 315 "Summer": I. Allegro non molto 05:20 5. 2, RV 315 "Summer": II.

1. The 4 Seasons (Spring) I. Alle. Capella Istropolitana, Stephen Gunzenhauser & Takako Nishizaki. 3. The 4 Seasons (Spring) Iii.

1. 2. The 4 Seasons (Spring) Ii. Lar. Da. 4. The 4 Seasons (Summer) I. 5. The 4 Seasons (Summer) Ii. Ada. Capella Istropolitana, Stephen Gunzenhauser & Takako Nishizaki

01 - The Four Seasons, Violin Concerto in E Major, O. Torrent Downloaded from worldwidetorrents. to (. KB). Description.

01 - The Four Seasons, Violin Concerto in E Major, Op. 1, RV 269 -Spring- I. Allegro. flac (3. MB). 02 - The Four Seasons, Violin Concerto in E Major, Op. 1, RV 269 -Spring- II. Largo e pianissimo sempre. flac (2. 03 - The Four Seasons, Violin Concerto in E Major, Op. 1, RV 269 -Spring- III. Danza pastorale- Allegro. flac (4. 04 - The Four Seasons, Violin Concerto in G Minor, Op. 2, RV 315 -Summer- I. Allegro non molto.

Takako Nishizaki, Capella Istropolitana, Stephen Gunzenhauser – Antonio Vivaldi Four Seasons (Summer) II. 2:32. Takako Nishizaki, Capella Istropolitana, Stephen Gunzenhuaser – Summer - Adagio, the Four Seasons. Takako Nishizaki, Capella Istropolitana, Stephen Gunzenhuaser – Winter - Largo, the Four Seasons. the week Deus ex human revolution armin Don't Give Up On Me Coco Montoya Ibiza Chillout Mix Coco Montoya2014 - Songs From The Road бизоны малышки идите гулять фон школьная alicante third eye llario alicante.

Capella n Gunzenhauser/Takako Nishizaki Violin Concerto, for violin, strings & continuo in E. .Takako Nishizaki, Stephen Gunzenhauser & Capella Istropolitana Антонио Вивальди - Времена года. Концерт для скрипки ми-бемоль мажор.

Capella n Gunzenhauser/Takako Nishizaki Violin Concerto, for violin, strings & continuo in E major ("La Primave. Takako Nishizaki, Capella Istropolitana, Stephen Gunzenhuaser Winter - Largo, the Four Seasons. Аллегро (The 4 Seasons: Violin Concerto in E major, Op. 8, No. 1, RV 269, La primavera (Spring): I. Allegro).

Vivaldi: The Four Season – Winter Takako Nishizaki, Capella . Provided to YouTube by NAXOS of America The Four Seasons, RV 269: "Spring": Allegro · Takako Nishizaki Vivaldi (The Best Of) ℗ 1997 Naxos Released on

Vivaldi: The Four Season – Winter Takako Nishizaki, Capella Istropolitana & Stephen Gunzenhauser Follow URBAN HIJAB LifeStyle Blog o.Always Classical в 2018. The Four Seasons, RV 269: "Spring": Allegro. Provided to YouTube by NAXOS of America The Four Seasons, RV 269: "Spring": Allegro · Takako Nishizaki Vivaldi (The Best Of) ℗ 1997 Naxos Released on:. Takako Nishizaki - Topic в 2016. The Four Seasons, Violin Concerto in F Minor, Op. 4, RV 297 "Winter": I.

Vivaldi: The Four Seasons. Takako Nishizaki, Capella Istropolitana, Stephen Gunzenhauser. Slovak Philharmonic Orchestra, Capella Istropolitana, Takako Nishizaki, Antoni Wit, Ondrej Lenard. Andante: A Special 2 ½ Hour Collection of Chamber Music Classics. Jeno Jando, Capella Istropolitana, Camerata Cassovia, György Konrád, Jozsef Kiss. Adagio II: A Special 2 ½ Hour Collection of Orchestral Classics. Royal Philharmonic Orchestra, Slovak Philharmonic Orchestra, Stefan Vladar, Jeno Jando, Capella Istropolitana. мы улучшили вашПлейлист дня и другие умные плейлисты.

Directed By – Stephen Gunzenhauser. Ensemble – Capella Istropolitana. Liner Notes – Keith Anderson (6). Liner Notes – Frédéric Castello.


Quality-Lossless
Release-2014
Duration-00:46:04
File Size-470 MB
Genre-Classical
Cover Size-1400px

Analyzed: Vivaldi: The Four Seasons / Artist: Takako Nishizaki, Capella Istropolitana & Stephen Gunzenhauser

DR Peak RMS Duration Title [codec]

DR13 -3.35 dB -22.73 dB 3:31 01 - The Four Seasons, Violin Concerto in E Major, Op. 8 No. 1, RV 269 "Spring": I. Allegro [flac]
DR13 -8.02 dB -28.62 dB 2:39 02 - The Four Seasons, Violin Concerto in E Major, Op. 8 No. 1, RV 269 "Spring": II. Largo e pianissimo sempre [flac]
DR13 -5.28 dB -24.81 dB 4:20 03 - The Four Seasons, Violin Concerto in E Major, Op. 8 No. 1, RV 269 "Spring": III. Danza pastorale: Allegro [flac]
DR14 -4.17 dB -26.57 dB 5:23 04 - The Four Seasons, Violin Concerto in G Minor, Op. 8 No. 2, RV 315 "Summer": I. Allegro non molto [flac]
DR14 -8.51 dB -30.98 dB 2:33 05 - The Four Seasons, Violin Concerto in G Minor, Op. 8 No. 2, RV 315 "Summer": II. Adagio - Presto [flac]
DR12 -6.63 dB -22.64 dB 3:06 06 - The Four Seasons, Violin Concerto in G Minor, Op. 8 No. 2, RV 315 "Summer": III. Presto [flac]
DR14 -2.60 dB -23.54 dB 4:48 07 - The Four Seasons, Violin Concerto in F Major, Op. 8 No. 3, RV 293 "Autumn": I. Allegro [flac]
DR11 -22.12 dB -36.33 dB 2:45 08 - The Four Seasons, Violin Concerto in F Major, Op. 8 No. 3, RV 293 "Autumn": II. Adagio molto [flac]
DR16 -3.25 dB -25.77 dB 3:18 09 - The Four Seasons, Violin Concerto in F Major, Op. 8 No. 3, RV 293 "Autumn": III. Allegro [flac]
DR14 -5.72 dB -27.24 dB 3:29 10 - The Four Seasons, Violin Concerto in F Minor, Op. 8 No. 4, RV 297 "Winter": I. Allegro non molto [flac]
DR13 -14.66 dB -31.77 dB 2:20 11 - The Four Seasons, Violin Concerto in F Minor, Op. 8 No. 4, RV 297 "Winter": II. Largo [flac]
DR13 -4.54 dB -25.89 dB 3:16 12 - The Four Seasons, Violin Concerto in F Minor, Op. 8 No. 4, RV 297 "Winter": III. Allegro [flac]
DR12 -5.91 dB -23.48 dB 1:17 13 - Concerto for Strings in G Major, RV 151, "Alla Rustica": I. Presto [flac]
DR12 -8.45 dB -26.22 dB 1:30 14 - Concerto for Strings in G Major, RV 151, "Alla Rustica": II. Adagio [flac]
DR12 -5.32 dB -22.58 dB 1:42 15 - Concerto for Strings in G Major, RV 151, "Alla Rustica": III. Allegro [flac]

Number of files: 15
Official DR value: DR13
Sampling rate: 44100 Hz
Average bitrate: 1348kbs
Bits per sample: 24 bit

Related music:
The Four Seasons - Le Quattro Stagioni I Musici Vivaldi 192k download The Four Seasons - Le Quattro Stagioni I Musici Vivaldi 192k
MP3
English
58.9 MB
4.9
/images/5/8/the-four-seasons-le-quattro-stagioni-i-musici-vivaldi-192k-.jpg
VIVALDI - CONCERTOS E SONATAS OP 1 -13 -SCIMONE download VIVALDI - CONCERTOS E SONATAS OP 1 -13 -SCIMONE
Lossless
5.1 GB
4.7
/images/5/4/vivaldi-concertos-e-sonatas-op-1-13-scimone.jpg
Bach - Violin & Oboe Concertos c18 MP3 twistle Virgin download Bach - Violin & Oboe Concertos c18 MP3 twistle Virgin
MP3
English
84.3 MB
4.3
/images/5/5/bach-violin-26-oboe-concertos-c18-mp3-twistle-virgin.jpg
Mozart - The Very Best of Mozart Various, 2005 download Mozart - The Very Best of Mozart Various, 2005
Album
Other
106.2 MB
4.6
/images/5/7/mozart-the-very-best-of-mozart-various2c-2005.jpg
Sara Sant'Ambrogio - Elgar, Piazzolla, Wolosoff 192hz-24bit 2019 download Sara Sant'Ambrogio - Elgar, Piazzolla, Wolosoff 192hz-24bit 2019
Lossless
English
2.2 GB
4.0
/images/5/1/sara-sant27ambrogio-elgar2c-piazzolla2c-wolosoff-192hz-24bit-2019.jpg
Lorenzo Gatto - Beethoven- Violin Sonatas download Lorenzo Gatto - Beethoven- Violin Sonatas
Lossless
English
3.9 GB
4.6
/images/5/6/lorenzo-gatto-beethoven-violin-sonatas-.jpg
Julia Fischer - J S Bach Violin Concertos plus Vivaldi track bonus download Julia Fischer - J S Bach Violin Concertos plus Vivaldi track bonus
MP3
English
111.9 MB
4.7
/images/5/1/julia-fischer-j-s-bach-violin-concertos-plus-vivaldi-track-bonus-.jpg
Lidarti - Violin Concertos c18 OGG twistle Hyperion download Lidarti - Violin Concertos c18 OGG twistle Hyperion
MP3
English
128.9 MB
4.2
/images/5/2/lidarti-violin-concertos-c18-ogg-twistle-hyperion.jpg
Antonio Vivaldi - The Four Seasons FLAC 2013 I Musici DVD5 NTSC download Antonio Vivaldi - The Four Seasons FLAC 2013 I Musici DVD5 NTSC
Lossless
English
4.2 GB
4.8
/images/5/2/antonio-vivaldi-the-four-seasons-flac-2013-i-musici-dvd5-ntsc.jpg