Files 42316
» » Frank Sinatra e Tom Jobim-The Complete Reprise Album EacFlacCue TntVillage
Language: Portuguese
Size: 328.0 MB
Votes: 354
Downloaded: 36
Category: Lossless
Format: MP3, FLAC
4.3

File list

  • (1) The Girl from Ipanema (Garota de Ipanema) (from Jan-Feb 1967 Sessions) - Frank Sinatra & Antonio Carlos Jobim.flac (18.8 MB)
  • (10) Once I Loved (O Amor en Paz) (from Jan-Feb 1967 Sessions) - Frank Sinatra & Antonio Carlos Jobim.flac (14.1 MB)
  • (11) The Song of the Sabia (from Feb 1969 Sessions) - Frank Sinatra & Antonio Carlos Jobim.flac (20.2 MB)
  • (12) Drinking Water (Aqua de Beber) (from Feb 1969 Sessions) - Frank Sinatra & Antonio Carlos Jobim.flac (15.3 MB)
  • (13) Someone to Light Up My Life (from Feb 1969 Sessions) - Frank Sinatra & Antonio Carlos Jobim.flac (14.8 MB)
  • (14) Triste (from Feb 1969 Sessions) - Frank Sinatra & Antonio Carlos Jobim.flac (14.9 MB)
  • (15) This Happy Madness (Estrada Branca) (from Feb 1969 Sessions) - Frank Sinatra & Antonio Carlos Jobim.flac (16.9 MB)
  • (16) One Note Samba (Samba de Uma Nota So) (from Feb 1969 Sessions) - Frank Sinatra & Antonio Carlos Jobim.flac (13.5 MB)
  • (17) Don't Ever Go Away (Por Causa de Voce) (from Feb 1969 Sessions) - Frank Sinatra & Antonio Carlos Jobim.flac (13.8 MB)
  • (18) Wave (from Feb 1969 Sessions) - Frank Sinatra & Antonio Carlos Jobim.flac (19.0 MB)
  • (19) Off Key (Desafinado) (from Feb 1969 Sessions) - Frank Sinatra & Antonio Carlos Jobim.flac (18.6 MB)
  • (2) Dindi (from Jan-Feb 1967 Sessions) - Frank Sinatra & Antonio Carlos Jobim.flac (19.2 MB)
  • (20) Bonita (from Feb 1969 Sessions) - Frank Sinatra & Antonio Carlos Jobim.flac (20.3 MB)
  • (3) Change Partners (from Jan-Feb 1967 Sessions) - Frank Sinatra & Antonio Carlos Jobim.flac (15.4 MB)
  • (4) Quiet Nights of Quiet Stars (Corcovado) (from Jan-Feb 1967 Sessions) - Frank Sinatra & Antonio Carlos Jobim.flac (15.6 MB)
  • (5) Meditation (Meditacao) (from Jan-Feb 1967 Sessions) - Frank Sinatra & Antonio Carlos Jobim.flac (15.9 MB)
  • (6) If You Never Come to Me (from Jan-Feb 1967 Sessions) - Frank Sinatra & Antonio Carlos Jobim.flac (11.6 MB)
  • (7) How Insensitive (Insensatez) (from Jan-Feb 1967 Sessions) - Frank Sinatra & Antonio Carlos Jobim.flac (19.4 MB)
  • (8) I Concentrate On You (from Jan-Feb 1967 Sessions) - Frank Sinatra & Antonio Carlos Jobim.flac (15.1 MB)
  • (9) Baubles, Bangles and Beads (from Jan-Feb 1967 Sessions) - Frank Sinatra & Antonio Carlos Jobim.flac (15.5 MB)
  • 00._%FrancisAlbertSinatraEAntonioCarlosJobim%TheCompleteRepriseRecordings%.nfo (2.9 KB)
  • DSC00789.JPG (55.7 KB)
  • Frank Sinatra & Antonio Carlos Jobim - Sinatra & Jobim- The Complete Reprise Recordings.log (24.5 KB)
  • Frank Sinatra & Antonio Carlos Jobim - Sinatra & Jobim- The Complete Reprise Recordings.m3u8 (4.0 KB)
  • Sinatra & Jobim- The Complete Reprise Recordings.cue (5.6 KB)

Frank Sinatra & Antonio Carlos Jobim - Sinatra & Jobim: The Complete Reprise . Thank you very much for this magnificent contribution, Frank & Tom magnificent artists.

Frank Sinatra & Antonio Carlos Jobim - Sinatra & Jobim: The Complete Reprise Recordings -. Artist. Frank Sinatra & Antonio Carlos Jobim Album. Sinatra & Jobim: The Complete Reprise Recordings Genre.

MUSICISTI Frank Sinatra - voce; Antonio Carlos Jobim - voce, pianoforte, chitarra; Claus Ogerman - arrangiamenti.

Sinatra/Jobim: The Complete Reprise Recordings is a 2010 compilation album by Frank Sinatra, consisting of 20 tracks he recorded with the Brazilian musician Antônio Carlos Jobim. The Girl from Ipanema" (Antônio Carlos Jobim, Norman Gimbel, Vinícius de Moraes) – 3:20. Dindi" (Ray Gilbert, Jobim, Aloysio de Oliveria) – 3:31. Change Partners" (Irving Berlin) – 2:43.

Frank Sinatra, Antonio Carlos Jobim - The Girl From Ipanema. Frank Sinatra, Antonio Carlos Jobim - If You Never Come To Me (Inútil Paisagen). dl. Frank Sinatra, Antonio Carlos Jobim - Dindi. Frank Sinatra, Antonio Carlos Jobim, Ирвинг Берлин - Change Partners. Frank Sinatra, Antonio Carlos Jobim - How Insensitive (Insensatez).

Sinatra/Jobim: The Complete Reprise Recordings - Frank Sinatra, Antonio Carlos Jobim. Открывайте новую музыку каждый день. Лента с персональными рекомендациями и музыкальными новинками, радио, подборки на любой вкус, удобное управление своей коллекцией. Миллионы композиций бесплатно и в хорошем качестве.

This compilation album gathers tracks from two sets of recording sessions Frank Sinatra did with Brazilian singer/songwriter Antonio Carlos Jobim, one in 1967 and another in 1969. The first set of sessions in late January and early February 1967 resulted in the ten-track LP Francis Albert Sinatra & Antonio Carlos Jobim, released later in 1967.

This "complete" collection gathers the landmark 1967 album Francis Albert Sinatra & Antonio Carlos Jobim, the selections from the 1969 sessions for the never-released SinatraJobim album (only a rare 8-track) that saw partial release on 1971’s Sinatra & Company, plus three outtakes. Sinatra never sounded more warm and sensitive (especially on How Insensitive !). Jobim’s gentle acoustic guitar work combines with bossa nova arrangements from Claus Ogerman and his orchestra (on the first 10 tracks).





Artist: Frank Sinatra e Tom Jobim
Title Of Album: The Complete Reprise Album
Etichetta: Universal Music Gorup International
Pubblicazione: LP 1967 - CD 2010
Genre: MPB
Style: Swing-Bossa Nova-Jazz
Source: CD
Playing Time: 58.23
Total Size: 327,86 MB
Quality: FLAC+Cue+Log+Info+Cover
Bitrate: Lossless
MUSICISTI>
Frank Sinatra - voce;
Antonio Carlos Jobim - voce, pianoforte, chitarra;
Claus Ogerman - arrangiamenti.


1. The Girl from Ipanema (Garota de Ipanema) (from Jan-Feb 1967 Sessions)[03.20]
2. Dindi (from Jan-Feb 1967 Sessions)[03.31]
3. Change Partners (from Jan-Feb 1967 Sessions)[02.43]
4. Quiet Nights of Quiet Stars (Corcovado) (from Jan-Feb 1967 Sessions)[02.45]
5. Meditation (Meditacao) (from Jan-Feb 1967 Sessions)[02.55]
6. If You Never Come to Me (from Jan-Feb 1967 Sessions)[02.11]
7. How Insensitive (Insensatez) (from Jan-Feb 1967 Sessions)[03.18]
8. I Concentrate On You (from Jan-Feb 1967 Sessions)[02.39]
9. Baubles, Bangles and Beads (from Jan-Feb 1967 Sessions)[02.36]
10. Once I Loved (O Amor en Paz) (from Jan-Feb 1967 Sessions)[02.38]
11. The Song of the Sabia (from Feb 1969 Sessions)[03.40]
12. Drinking Water (Aqua de Beber) (from Feb 1969 Sessions)[02.37]
13. Someone to Light Up My Life (from Feb 1969 Sessions)[02.40]
14. Triste (from Feb 1969 Sessions)[02.42]
15. This Happy Madness (Estrada Branca) (from Feb 1969 Sessions)[02.57]
16. One Note Samba (Samba de Uma Nota So) (from Feb 1969 Sessions)[02.22]
17. Don't Ever Go Away (Por Causa de Voce) (from Feb 1969 Sessions)[02.30]
18. Wave (from Feb 1969 Sessions)[03.21]
19. Off Key (Desafinado) (from Feb 1969 Sessions)[03.09]
20. Bonita (from Feb 1969 Sessions)[03.40]


Alla fine del 1966, Jobim si trovava a Rio de Janeiro, nello stesso locale di Ipanema nel quale nacque l'idea di Garota de Ipanema. Ricevette una telefonata dagli Stati Uniti: "Mi piacerebbe fare un disco con te e volevo sapere se l'idea poteva interessarti". All'altro capo del telefono c'era Frank Sinatra.
Il disco fu registrato a Los Angeles e Jobim compose per l'occasione due pezzi nuovi: Wave e Triste. Tom arrivò negli Stati Uniti nel gennaio del 1967 e passò molto tempo, da solo, in hotel, aspettando che il celebre cantante americano si facesse vivo per iniziare la registrazione. Sinatra era in fuga alle Barbados per sfuggire alla moglie Mia Farrow dopo una lite. In hotel passava il tempo componendo, guardando la TV e scrivendo lettere a Vinicius de Moraes (nelle quali si definiva frustrato, annoiato e infelice e alla fine delle quali si firmava come Astênio Claustro Fobim).
Quando Sinatra arrivò e iniziarono le registrazioni, Jobim era abbastanza nervoso e preoccupato. Sinatra lo mise subito a suo agio. Prima volle registrare alcune canzoni americane arrangiate da Claus Ogerman su ritmi brasiliani per prendere confidenza con lo stile e in quelle canzoni si fece accompagnare da Tom alla chitarra e al pianoforte e duettò con lui in inglese. Poi iniziarono le registrazioni dei pezzi di Jobim tra le quali spiccano Insensatez, Dindi e una bella versione di The Girl From Ipanema con Tom che cantò in portoghese.
Il disco, intitolato Francis Albert Sinatra & Antonio Carlos Jobim, fu elogiato dalla critica e vendette molto bene (anche per gli standard di Sinatra a quei tempi). Tom partecipò anche allo show televisivo per la NBC di Sinatra (duettarono su Corcovado). Qualche anno dopo Sinatra realizzò un altro disco con canzoni di Jobim, Sinatra e Company, con arrangiamenti di Eumir Deodato.

Quote:

Exact Audio Copy V1.0 beta 3 from 29. August 2011
EAC extraction logfile from 29. March 2012, 14:53
Frank Sinatra & Antonio Carlos Jobim / Sinatra & Jobim: The Complete Reprise Recordings
Used drive : HL-DT-STDVDRAM GSA-T40N Adapter: 0 ID: 0
Read mode : Secure
Utilize accurate stream : Yes
Defeat audio cache : Yes
Make use of C2 pointers : No
Read offset correction : 667
Overread into Lead-In and Lead-Out : No
Fill up missing offset samples with silence : Yes
Delete leading and trailing silent blocks : No
Null samples used in CRC calculations : Yes
Used interface : Native Win32 interface for Win NT & 2000
Gap handling : Appended to previous track
Used output format : User Defined Encoder
Selected bitrate : 896 kBit/s
Quality : High
Add ID3 tag : No
Command line compressor : C:Program FilesExact Audio CopyFLACFLAC.EXE
Additional command line options : -8 -V -T "ARTIST=%artist%" -T "TITLE=%title%" -T "ALBUM=%albumtitle%" -T "DATE=%year%" -T "TRACKNUMBER=%tracknr%" -T "GENRE=%genre%" -T "COMMENT=%comment%" -T "BAND=%albuminterpret%" -T "ALBUMARTIST=%albuminterpret%" -T "COMPOSER=%composer%" %haslyrics%--tag-from-file=LYRICS="%lyricsfile%"%haslyrics% -T "DISCNUMBER=%cdnumber%" -T "TOTALDISCS=%totalcds%" -T "TOTALTRACKS=%numtracks%" %hascover%--picture="%coverfile%"%hascover% %source% -o %dest%
TOC of the extracted CD
Track | Start | Length | Start sector | End sector
-
1 | 0:00.00 | 3:20.27 | 0 | 15026
2 | 3:20.27 | 3:31.68 | 15027 | 30919
3 | 6:52.20 | 2:43.14 | 30920 | 43158
4 | 9:35.34 | 2:45.16 | 43159 | 55549
5 | 12:20.50 | 2:55.32 | 55550 | 68706
6 | 15:16.07 | 2:11.44 | 68707 | 78575
7 | 17:27.51 | 3:18.25 | 78576 | 93450
8 | 20:46.01 | 2:39.33 | 93451 | 105408
9 | 23:25.34 | 2:36.22 | 105409 | 117130
10 | 26:01.56 | 2:38.69 | 117131 | 129049
11 | 28:40.50 | 3:40.46 | 129050 | 145595
12 | 32:21.21 | 2:37.63 | 145596 | 157433
13 | 34:59.09 | 2:40.44 | 157434 | 169477
14 | 37:39.53 | 2:42.53 | 169478 | 181680
15 | 40:22.31 | 2:57.48 | 181681 | 195003
16 | 43:20.04 | 2:22.58 | 195004 | 205711
17 | 45:42.62 | 2:30.05 | 205712 | 216966
18 | 48:12.67 | 3:21.42 | 216967 | 232083
19 | 51:34.34 | 3:09.11 | 232084 | 246269
20 | 54:43.45 | 3:40.19 | 246270 | 262788
Track 1
Filename F:MY EAC[.FLAC]Frank Sinatra e Tom Jobim - The Complete Reprise Record The Girl from Ipanema (Garota de Ipanema) (from Jan-Feb 1967 Sessions) - Frank Sinatra & Antonio Carlos Jobim.flac
Pre-gap length 0:00:02.00
Peak level 93.5 %
Extraction speed 1.7 X
Track quality 100.0 %
Test CRC 83AF7CE4
Copy CRC 83AF7CE4
Cannot be verified as accurate (confidence 26) [CAE81494], AccurateRip returned [8073C132] (AR v2)
Copy OK
Track 2
Filename F:MY EAC[.FLAC]Frank Sinatra e Tom Jobim - The Complete Reprise Record Dindi (from Jan-Feb 1967 Sessions) - Frank Sinatra & Antonio Carlos Jobim.flac
Peak level 92.5 %
Extraction speed 2.3 X
Track quality 100.0 %
Test CRC 422307F1
Copy CRC 422307F1
Cannot be verified as accurate (confidence 26) [DE607B6A], AccurateRip returned [6EBB4DE4] (AR v2)
Copy OK
Track 3
Filename F:MY EAC[.FLAC]Frank Sinatra e Tom Jobim - The Complete Reprise Record Change Partners (from Jan-Feb 1967 Sessions) - Frank Sinatra & Antonio Carlos Jobim.flac
Peak level 88.4 %
Extraction speed 2.3 X
Track quality 100.0 %
Test CRC FC9947CE
Copy CRC FC9947CE
Cannot be verified as accurate (confidence 26) [4775052C], AccurateRip returned [99930EA2] (AR v2)
Copy OK
Track 4
Filename F:MY EAC[.FLAC]Frank Sinatra e Tom Jobim - The Complete Reprise Record Quiet Nights of Quiet Stars (Corcovado) (from Jan-Feb 1967 Sessions) - Frank Sinatra & Antonio Carlos Jobim.flac
Peak level 85.2 %
Extraction speed 2.4 X
Track quality 100.0 %
Test CRC 5C8F7D62
Copy CRC 5C8F7D62
Cannot be verified as accurate (confidence 26) [73A3E30F], AccurateRip returned [3B9C1FDE] (AR v2)
Copy OK
Track 5
Filename F:MY EAC[.FLAC]Frank Sinatra e Tom Jobim - The Complete Reprise Record Meditation (Meditacao) (from Jan-Feb 1967 Sessions) - Frank Sinatra & Antonio Carlos Jobim.flac
Peak level 85.5 %
Extraction speed 2.6 X
Track quality 100.0 %
Test CRC E96B4A8C
Copy CRC E96B4A8C
Cannot be verified as accurate (confidence 26) [A0C00F2F], AccurateRip returned [56B98DC4] (AR v2)
Copy OK
Track 6
Filename F:MY EAC[.FLAC]Frank Sinatra e Tom Jobim - The Complete Reprise Record If You Never Come to Me (from Jan-Feb 1967 Sessions) - Frank Sinatra & Antonio Carlos Jobim.flac
Peak level 83.3 %
Extraction speed 2.6 X
Track quality 100.0 %
Test CRC 047E65B1
Copy CRC 047E65B1
Cannot be verified as accurate (confidence 26) [B3C1120B], AccurateRip returned [427187D4] (AR v2)
Copy OK
Track 7
Filename F:MY EAC[.FLAC]Frank Sinatra e Tom Jobim - The Complete Reprise Record How Insensitive (Insensatez) (from Jan-Feb 1967 Sessions) - Frank Sinatra & Antonio Carlos Jobim.flac
Peak level 92.4 %
Extraction speed 2.9 X
Track quality 100.0 %
Test CRC 06F06FAC
Copy CRC 06F06FAC
Cannot be verified as accurate (confidence 26) [548CF228], AccurateRip returned [CFC82CF4] (AR v2)
Copy OK
Track 8
Filename F:MY EAC[.FLAC]Frank Sinatra e Tom Jobim - The Complete Reprise Record I Concentrate On You (from Jan-Feb 1967 Sessions) - Frank Sinatra & Antonio Carlos Jobim.flac
Peak level 85.5 %
Extraction speed 2.9 X
Track quality 100.0 %
Test CRC 1F3700EB
Copy CRC 1F3700EB
Cannot be verified as accurate (confidence 26) [2762BBC2], AccurateRip returned [ED58AFCE] (AR v2)
Copy OK
Track 9
Filename F:MY EAC[.FLAC]Frank Sinatra e Tom Jobim - The Complete Reprise Record Baubles, Bangles and Beads (from Jan-Feb 1967 Sessions) - Frank Sinatra & Antonio Carlos Jobim.flac
Peak level 94.9 %
Extraction speed 2.8 X
Track quality 100.0 %
Test CRC A6F830FE
Copy CRC A6F830FE
Cannot be verified as accurate (confidence 26) [2EFB2E54], AccurateRip returned [D417B721] (AR v2)
Copy OK
Track 10
Filename F:MY EAC[.FLAC]Frank Sinatra e Tom Jobim - The Complete Reprise Record Once I Loved (O Amor en Paz) (from Jan-Feb 1967 Sessions) - Frank Sinatra & Antonio Carlos Jobim.flac
Peak level 93.8 %
Extraction speed 2.9 X
Track quality 100.0 %
Test CRC 94BE4C16
Copy CRC 94BE4C16
Cannot be verified as accurate (confidence 26) [888387CC], AccurateRip returned [CFBDB45B] (AR v2)
Copy OK
Track 11
Filename F:MY EAC[.FLAC]Frank Sinatra e Tom Jobim - The Complete Reprise Record The Song of the Sabia (from Feb 1969 Sessions) - Frank Sinatra & Antonio Carlos Jobim.flac
Peak level 86.1 %
Extraction speed 3.2 X
Track quality 100.0 %
Test CRC 0A7F0693
Copy CRC 0A7F0693
Cannot be verified as accurate (confidence 26) [ECB0BAB5], AccurateRip returned [DB4FB295] (AR v2)
Copy OK
Track 12
Filename F:MY EAC[.FLAC]Frank Sinatra e Tom Jobim - The Complete Reprise Record Drinking Water (Aqua de Beber) (from Feb 1969 Sessions) - Frank Sinatra & Antonio Carlos Jobim.flac
Pre-gap length 0:00:01.04
Peak level 92.4 %
Extraction speed 3.2 X
Track quality 100.0 %
Test CRC C1A28E77
Copy CRC C1A28E77
Cannot be verified as accurate (confidence 26) [06CADABD], AccurateRip returned [0070B0AC] (AR v2)
Copy OK
Track 13
Filename F:MY EAC[.FLAC]Frank Sinatra e Tom Jobim - The Complete Reprise Record Someone to Light Up My Life (from Feb 1969 Sessions) - Frank Sinatra & Antonio Carlos Jobim.flac
Pre-gap length 0:00:02.40
Peak level 87.5 %
Extraction speed 3.2 X
Track quality 100.0 %
Test CRC 91DC2F64
Copy CRC 91DC2F64
Cannot be verified as accurate (confidence 26) [183050B5], AccurateRip returned [EB0F11BE] (AR v2)
Copy OK
Track 14
Filename F:MY EAC[.FLAC]Frank Sinatra e Tom Jobim - The Complete Reprise Record Triste (from Feb 1969 Sessions) - Frank Sinatra & Antonio Carlos Jobim.flac
Pre-gap length 0:00:01.88
Peak level 85.4 %
Extraction speed 3.4 X
Track quality 100.0 %
Test CRC E39B4B5F
Copy CRC E39B4B5F
Cannot be verified as accurate (confidence 26) [45982AD3], AccurateRip returned [CE1BC93E] (AR v2)
Copy OK
Track 15
Filename F:MY EAC[.FLAC]Frank Sinatra e Tom Jobim - The Complete Reprise Record This Happy Madness (Estrada Branca) (from Feb 1969 Sessions) - Frank Sinatra & Antonio Carlos Jobim.flac
Pre-gap length 0:00:01.21
Peak level 96.0 %
Extraction speed 3.0 X
Track quality 99.9 %
Test CRC 5FE29AEB
Copy CRC 5FE29AEB
Cannot be verified as accurate (confidence 26) [370A48E0], AccurateRip returned [9E6622AF] (AR v2)
Copy OK
Track 16
Filename F:MY EAC[.FLAC]Frank Sinatra e Tom Jobim - The Complete Reprise Record One Note Samba (Samba de Uma Nota So) (from Feb 1969 Sessions) - Frank Sinatra & Antonio Carlos Jobim.flac
Peak level 93.0 %
Extraction speed 2.9 X
Track quality 99.9 %
Test CRC 0080030F
Copy CRC 0080030F
Cannot be verified as accurate (confidence 26) [F11988D8], AccurateRip returned [9FEACEF5] (AR v2)
Copy OK
Track 17
Filename F:MY EAC[.FLAC]Frank Sinatra e Tom Jobim - The Complete Reprise Record Don't Ever Go Away (Por Causa de Voce) (from Feb 1969 Sessions) - Frank Sinatra & Antonio Carlos Jobim.flac
Pre-gap length 0:00:01.78
Peak level 95.6 %
Extraction speed 3.0 X
Track quality 99.9 %
Test CRC FA704F19
Copy CRC FA704F19
Cannot be verified as accurate (confidence 26) [A81EB366], AccurateRip returned [FEA6F296] (AR v2)
Copy OK
Track 18
Filename F:MY EAC[.FLAC]Frank Sinatra e Tom Jobim - The Complete Reprise Record Wave (from Feb 1969 Sessions) - Frank Sinatra & Antonio Carlos Jobim.flac
Pre-gap length 0:00:01.10
Peak level 88.5 %
Extraction speed 3.7 X
Track quality 100.0 %
Test CRC F025BBCE
Copy CRC F025BBCE
Cannot be verified as accurate (confidence 26) [8BF37161], AccurateRip returned [DC592741] (AR v2)
Copy OK
Track 19
Filename F:MY EAC[.FLAC]Frank Sinatra e Tom Jobim - The Complete Reprise Record Off Key (Desafinado) (from Feb 1969 Sessions) - Frank Sinatra & Antonio Carlos Jobim.flac
Peak level 92.1 %
Extraction speed 3.3 X
Track quality 99.9 %
Test CRC 3544F942
Copy CRC 3544F942
Cannot be verified as accurate (confidence 26) [8810728D], AccurateRip returned [43EB4F07] (AR v2)
Copy OK
Track 20
Filename F:MY EAC[.FLAC]Frank Sinatra e Tom Jobim - The Complete Reprise Record Bonita (from Feb 1969 Sessions) - Frank Sinatra & Antonio Carlos Jobim.flac
Peak level 93.8 %
Extraction speed 3.8 X
Track quality 100.0 %
Test CRC 10C4B9B2
Copy CRC 10C4B9B2
Cannot be verified as accurate (confidence 25) [85F1BFFC], AccurateRip returned [CEF13200] (AR v2)
Copy OK
All tracks accurately ripped
No errors occurred
End of status report
==== Log checksum 020289E90BD323BBDDDF44C9D85808A3117989DABDA8A2B686482E9F00B3CCF0 ====


Per i primi 10: 24 su 24:80/90 Kb/s

Related music:
My Way-The Best Of Frank Sinatra [email protected] download My Way-The Best Of Frank Sinatra [email protected]
MP3
English
344.0 MB
4.6
/images/5/5/my-way-the-best-of-frank-sinatra-2002-2cd-mp340320k-winker-2017.jpg
The Beach Boys - 1967 - Sunshine Tomorrow 2 - The Studio Sessions Mp3 2017 320kbps download The Beach Boys - 1967 - Sunshine Tomorrow 2 - The Studio Sessions Mp3 2017 320kbps
MP3
English
176.7 MB
4.0
/images/5/8/the-beach-boys-1967-sunshine-tomorrow-2-the-studio-sessions-mp3-2017-320kbps.jpg
Ella Fitzgerald - Ella Abraca Jobim JazzPlanet Eac Flac Cue UF download Ella Fitzgerald - Ella Abraca Jobim JazzPlanet Eac Flac Cue UF
Lossless
English
434.0 MB
4.3
/images/5/3/ella-fitzgerald-ella-abraca-jobim-jazzplanet-eac-flac-cue-uf.jpg
Frank Sinatra - New York New York - His Greatest Hits - - MP3-320 TFM 1989 download Frank Sinatra - New York New York - His Greatest Hits - - MP3-320 TFM 1989
MP3
English
184.6 MB
4.3
/images/5/9/frank-sinatra-new-york-new-york-his-greatest-hits--mp3-320-tfm-1989.jpg
Frank Zappa 1967 - Absolutely Free - FLAC fix for part A download Frank Zappa 1967 - Absolutely Free - FLAC fix for part A
Lossless
English
260.8 MB
4.8
/images/5/2/frank-zappa-1967-absolutely-free-flac-fix-for-part-a.jpg
VA - Sambalero @flac Bossa Nova download VA - Sambalero @flac Bossa Nova
Lossless
Spanish
236.7 MB
4.6
/images/5/9/va-sambalero-40flac-bossa-nova.jpg
Chet Baker & Bill Evans - The Complete Legendary Sessions Eac Flac Cue 2010 JazzPlanet download Chet Baker & Bill Evans - The Complete Legendary Sessions Eac Flac Cue 2010 JazzPlanet
Lossless
English
372.7 MB
4.2
/images/5/6/chet-baker-26-bill-evans-the-complete-legendary-sessions-eac-flac-cue-2010-jazzplanet.jpg
Sylvia Telles - The music of Mr Jobim Flac download Sylvia Telles - The music of Mr Jobim Flac
Lossless
English
200.1 MB
4.9
/images/5/1/sylvia-telles-the-music-of-mr-jobim-flac-.jpg