Files 42316
» » DJ Snake - Carte Blanche Flac 2019
Language: English
Size: 430.4 MB
Votes: 335
Downloaded: 119
Category: Lossless
Format: MP3, FLAC
4.9

File list

DJ Snake - Carte Blanche (2019)
  • 01 - Butterfly Effect.flac (24.1 MB)
  • 02 - Quiet Storm.flac (31.3 MB)
  • 03 - When The Lights Go Down.flac (28.2 MB)
  • 04 - Recognize.flac (22.9 MB)
  • 05 - No More.flac (17.2 MB)
  • 06 - Made In France.flac (29.9 MB)
  • 07 - Enzo.flac (26.0 MB)
  • 08 - Smile.flac (23.3 MB)
  • 09 - Try Me.flac (23.7 MB)
  • 10 - Loco Contigo.flac (20.3 MB)
  • 11 - Taki Taki.flac (24.6 MB)
  • 12 - Fuego.flac (23.0 MB)
  • 13 - Magenta Riddim.flac (23.6 MB)
  • 14 - Frequency 75.flac (31.6 MB)
  • 15 - SouthSide.flac (34.7 MB)
  • 16 - No Option.flac (23.0 MB)
  • 17 - Paris.flac (22.8 MB)
  • [TGx]Downloaded from torrentgalaxy.org .txt (0.6 KB)
  • cover.jpg (325.9 KB)
  • dr14.txt (1.7 KB)
  • Torrent Downloaded from Glodls.to.txt (0.2 KB)
  • Torrent downloaded from limetorrents.cc.txt (0.1 KB)
  • Torrent Downloaded from worldwidetorrents.to (0.1 KB)

ALBUM, TITLE: Carte Blanche. FILE FORMAT: FLAC (tracks).

ALBUM, TITLE: Carte Blanche. Release year, date: 2019.

DJ Snake - Carte Blanche (2019). Snake - Bling Bling Boy (2019). Black Snake - Black Snake (Bande Originale Inspiree Du Film) (2019). Zeu - Butterfly Doors (2018). Ham Mauvaise Graine - Carte Blanche (2015). Информация Посетители, находящиеся в группе Гости, не могут оставлять комментарии к данной публикации.

5 hours ago, Gandalfstorm said: Same, and im like half way done Same here lol on episode 5 and wow, theyve outdone themselves. even better than in previous seasons

03 - When The Lights Go Down.

03 - When The Lights Go Down. 2. 8 MB. 04 - Recognize. flac Posted in MP3. 1. 6 MB.

01 - Butterfly Effect. flac (2. MB). 02 - Quiet Storm. flac (3. 03 - When The Lights Go Down. Torrent Downloaded from worldwidetorrents. to (. KB). Description. 05 - No More.

Genre: Hip-Hop, Electronic, R&B Codec: Flac . lac) Rip: tracks+.

Zomboy) 3. When The Lights Go Down 4. Recognize (feat. Majid Jordan) 5. No More (feat. ZHU) 6. Made In France (feat. Tchami, Malaa, Mercer) 7. Enzo (feat. Sheck Wes, Offset, 21 Savage, Gucci Mane) 8. Smile (feat.

Carte Blanche (DJ Snake album). Carte Blanche is the second studio album by French record producer DJ Snake, released on 26 July 2019 through Geffen Records.

DJ Snake - Carte Blanche 2019. Dubstep, Riddim, Trap, Drumstep Release date. MP3/320 kbps + Label. Excision Music Cat EXCD008B Type. Osco - DUPLOC028 2019. VA - Transitions 2013. SkintDisco - Uno Bish 2019 (EP). Va - snake charmer 2019 (ep). Mo Vibez - Juggernaut 2019. Razcals - Snake Eyes (EP) 2019. Cartridge - Outsider (EP) 2018. Snake Pit Dub Plates - Stop Babylon 2018.


Quality-Lossless
Release-2019
Duration-01:00:49
File Size-451.3 MB
Genre-Dance
Cover Size-1200px

Analyzed: Carte Blanche / Artist: DJ Snake
DR Peak RMS Duration Title [codec]
DR5 -0.09 dB -10.04 dB 3:24 01 - Butterfly Effect [flac]
DR3 -0.00 dB -5.62 dB 3:45 02 - Quiet Storm [flac]
DR4 -0.00 dB -5.63 dB 3:50 03 - When The Lights Go Down [flac]
DR5 -0.18 dB -8.22 dB 3:33 04 - Recognize [flac]
DR6 -0.10 dB -8.79 dB 2:46 05 - No More [flac]
DR4 -0.00 dB -6.39 dB 4:11 06 - Made In France [flac]
DR3 -0.21 dB -5.41 dB 4:08 07 - Enzo (feat. Sheck Wes [flac]
DR5 -0.00 dB -7.05 dB 3:18 08 - Smile [flac]
DR3 -0.00 dB -6.09 dB 3:18 09 - Try Me [flac]
DR6 -0.00 dB -7.60 dB 3:04 10 - Loco Contigo (feat. J. Balvin, Tyga) [flac]
DR5 -0.00 dB -7.39 dB 3:31 11 - Taki Taki [flac]
DR6 -0.00 dB -8.01 dB 3:14 12 - Fuego (feat. Sean Paul, Anitta) [flac]
DR4 -0.01 dB -5.85 dB 3:14 13 - Magenta Riddim [flac]
DR5 -0.10 dB -8.08 dB 4:25 14 - Frequency 75 [flac]
DR4 -0.00 dB -6.48 dB 4:12 15 - SouthSide (feat. Eptic) [flac]
DR6 -0.00 dB -6.44 dB 3:04 16 - No Option [flac]
DR5 -0.06 dB -9.51 dB 3:45 17 - Paris [flac]
Number of files: 17
Official DR value: DR5
Sampling rate: 44100 Hz
Average bitrate: 983kbs
Bits per sample: 16 bit

Related music:
Tyga - Legendary FLAC 2019 download Tyga - Legendary FLAC 2019
Lossless
English
280.0 MB
4.7
/images/5/9/tyga-legendary-flac-2019.jpg
RuthAnne - Matters Of The Heart Flac 2019 download RuthAnne - Matters Of The Heart Flac 2019
Lossless
English
297.1 MB
4.6
/images/5/8/ruthanne-matters-of-the-heart-flac-2019.jpg
Dominic Sen - Visitor Flac 2019 download Dominic Sen - Visitor Flac 2019
Lossless
English
265.2 MB
4.0
/images/5/5/dominic-sen-visitor-flac-2019.jpg
Sabrina Carpenter - Singular Act II 2019 download Sabrina Carpenter - Singular Act II 2019
Lossless
English
199.0 MB
4.9
/images/5/2/sabrina-carpenter-singular-act-ii-2019.jpg
Kalie Shorr - Open Book Flac-was95 2019 download Kalie Shorr - Open Book Flac-was95 2019
Lossless
English
302.9 MB
4.8
/images/5/8/kalie-shorr-open-book-flac-was95-2019.jpg
Electric Guest - KIN Flac 2019 download Electric Guest - KIN Flac 2019
Lossless
English
233.2 MB
4.8
/images/5/2/electric-guest-kin-flac-2019.jpg
Keyshia Cole - Just Like You Flac 2007 download Keyshia Cole - Just Like You Flac 2007
Lossless
English
469.8 MB
4.7
/images/5/7/keyshia-cole-just-like-you-flac-2007.jpg
Ingrid Michaelson - Stranger Songs Flac 2019 download Ingrid Michaelson - Stranger Songs Flac 2019
Lossless
English
222.6 MB
4.4
/images/5/3/ingrid-michaelson-stranger-songs-flac-2019.jpg
Nona - Nona Flac 2019 download Nona - Nona Flac 2019
Lossless
English
279.8 MB
4.8
/images/noimage.jpg