Files 42316
» » ZZ Top - Audiophile Collection vtwin88cube FLAC DR14 2019
Language: English
Size: 609.8 MB
Votes: 105
Downloaded: 41
Category: Lossless
Format: MP3, FLAC
4.0

File list

ZZ Top - Audiophile Collection (2019) [FLAC] [DR14] vtwin88cube
  • 00. ZZ Top - Audiophile Collection.m3u (0.7 KB)
  • 01. I Thank You.flac (20.8 MB)
  • 02. Sleeping Bag.flac (27.6 MB)
  • 03. Sharp Dressed Man (45 Version).flac (20.1 MB)
  • 04. Tube Snake Boogie.flac (22.2 MB)
  • 05. Waitin' For The Bus.flac (17.0 MB)
  • 06. I Wanna Drive You Home.flac (30.6 MB)
  • 07. Jesus Just Left Chicago.flac (21.3 MB)
  • 08. Stages.flac (25.7 MB)
  • 09. I'm Bad, I'm Nationwide.flac (32.3 MB)
  • 10. Ten Foot Pole.flac (28.7 MB)
  • 11. Woke Up With Wood.flac (27.1 MB)
  • 12. A Fool For Your Stockings.flac (24.6 MB)
  • 13. Leila.flac (20.0 MB)
  • 14. Can't Stop Rockin'.flac (22.6 MB)
  • 15. Don't Tease Me.flac (29.0 MB)
  • 16. Hot, Blue And Righteous.flac (17.2 MB)
  • 17. Manic Mechanic.flac (17.8 MB)
  • 18. Dust My Broom.flac (19.7 MB)
  • 19. Lowdown On The Street.flac (18.5 MB)
  • 20. Hi Fi Mama.flac (17.1 MB)
  • 21. Party On The Patio.flac (19.3 MB)
  • 22. La Grange.flac (20.9 MB)
  • 23. Cheap Sunglasses.flac (30.6 MB)
  • 24. Shiek.flac (21.6 MB)
  • 25. Asleep In The Desert.flac (14.7 MB)
  • 26. Esther Be The One.flac (23.6 MB)
  • 27. Have You Heard.flac (18.2 MB)
  • auCDtect.txt (10.5 KB)
  • DR14.txt (2.4 KB)
  • ZZ Top.png (1,002.1 KB)

Thanks 4 Seeding! Cheers! 88.

2. MB. 15. Don't Tease M. lac. Thanks 4 Seeding! Cheers! 88.

14. Billy Squier - All Night Long. 21. Stevie Ray Vaughan And Double Trouble - Tightrope. 22. ZZ Top - A Fool For Your Stockings.

VA - Classic Rock Audiophile Collection (2019) vtwin88cube (68. MB). ▼ show more 15 files. 00. Classic Rock Audiophile Collection. 6 KB. 01. Twisted Sister - I Wanna Rock. 2. 1 MB. 02. Eric Clapton - Cocaine. 9 MB. 03. Led Zeppelin - Black Do. 14. 3. 3 MB. Fleetwood Mac - Dreams. 23. Eddie Money - Take Me Home Tonight (Be My Baby).

2019 FLAC DR14 vtwin88cube torrent or any other torrent from the Audio FLAC. Music Top 100 Audio Video Applications Games Porn Other. Details for this torrent. Arlo Guthrie - Audiophile Collection 2019 FLAC DR14 vtwin88cube.

Download Arlo Guthrie - Audiophile Collection 2019 FLAC DR14 vtwin88cube torrent or any other torrent from the Audio FLAC.

ch llection-(2019)--vtwin88cube Music. eu ZZ Top - Audiophile Collection (2019) vtwin88cube audio.

Fleetwood Mac - Audiophile Collection vtwin88cube. Fleetwood Mac-Hit Collection-2007 - Zz. 11 Aug. 5.

Fleetwood Mac - Audiophile Collection vtwin88cube.

FLAC LOSSLESS 16bit-44kHz DR15. Marcus Miller - Just What I Needed 14. Jazz Urbaine - Street Life 15. Herb Alpert - What Now My Love 16.

Various Artists Classic Rock Audiophile Collection 2 (2019) Build. Number of tracks: 25 Official DR value: DR14. About 50% of the tracks are Steve Hoffman remasters Hand crafted by vtwin88cube Why?

Various Artists Classic Rock Audiophile Collection 2 (2019) Build. Samplerate: 44100 Hz Channels: 2 Bits per sample: 16 Bitrate: 855 kbps Codec: FLAC. Notes: About 50% of the tracks are Steve Hoffman remasters Hand crafted by vtwin88cube Why? Because dynamic range matters! Tracklist: 0. Joe Walsh - Rocky Mountain Way 0. Bachman Turner Overdrive - Roll On Down The Highway 0. Dr

ZZ Top - Audiophile Collection [FLAC] [DR14]
DR Peak RMS Duration Track

DR13 0.00 dB -15.80 dB 3:23 01-I Thank You
DR16 0.00 dB -17.09 dB 4:03 02-Sleeping Bag
DR14 -0.42 dB -15.73 dB 2:59 03-Sharp Dressed Man (45 Version)
DR13 0.00 dB -14.11 dB 3:05 04-Tube Snake Boogie
DR13 -0.15 dB -15.53 dB 2:53 05-Waitin’ For The Bus
DR14 0.00 dB -15.84 dB 4:49 06-I Wanna Drive You Home
DR13 -0.23 dB -14.35 dB 3:30 07-Jesus Just Left Chicago
DR13 -1.79 dB -16.41 dB 3:36 08-Stages
DR13 0.00 dB -14.96 dB 4:47 09-I’m Bad, I’m Nationwide
DR14 0.00 dB -15.82 dB 4:24 10-Ten Foot Pole
DR13 -1.76 dB -17.19 dB 3:48 11-Woke Up With Wood
DR15 0.00 dB -17.41 dB 4:20 12-A Fool For Your Stockings
DR14 -0.61 dB -16.24 dB 3:18 13-Leila
DR14 -0.91 dB -16.39 dB 3:05 14-Can’t Stop Rockin’
DR14 0.00 dB -15.13 dB 4:23 15-Don’t Tease Me
DR14 -0.11 dB -16.12 dB 3:17 16-Hot, Blue And Righteous
DR14 0.00 dB -15.99 dB 2:39 17-Manic Mechanic
DR13 -0.58 dB -15.58 dB 3:07 18-Dust My Broom
DR13 -0.78 dB -16.19 dB 2:52 19-Lowdown On The Street
DR13 0.00 dB -14.47 dB 2:24 20-Hi Fi Mama
DR14 -0.72 dB -16.13 dB 2:49 21-Party On The Patio
DR13 -0.02 dB -15.91 dB 3:53 22-La Grange
DR14 0.00 dB -16.20 dB 4:50 23-Cheap Sunglasses
DR15 -0.05 dB -18.69 dB 4:06 24-Shiek
DR15 0.00 dB -17.96 dB 3:30 25-Asleep In The Desert
DR14 0.00 dB -14.91 dB 3:30 26-Esther Be The One
DR13 -0.57 dB -16.13 dB 3:14 27-Have You Heard?

Number of tracks: 27
Official DR value: DR14
Samplerate: 44100 Hz
Channels: 2
Bits per sample: 16
Bitrate: 745 kbps
Codec: FLAC
Thanks 4 Seeding!
Cheers!
88

Related music:
Eric Clapton - Behind The Sun Flac 1985 download Eric Clapton - Behind The Sun Flac 1985
Lossless
English
280.2 MB
4.3
/images/5/0/eric-clapton-behind-the-sun-flac-1985.jpg
Homegas Homegas A.C.U.M. 1970 download Homegas Homegas A.C.U.M. 1970
Lossless
English
413.7 MB
4.1
/images/5/8/homegas-homegas-acum-1970.jpg
Sara Sant'Ambrogio - Elgar, Piazzolla, Wolosoff 192hz-24bit 2019 download Sara Sant'Ambrogio - Elgar, Piazzolla, Wolosoff 192hz-24bit 2019
Lossless
English
2.2 GB
4.0
/images/5/1/sara-sant27ambrogio-elgar2c-piazzolla2c-wolosoff-192hz-24bit-2019.jpg
Maddalena Del Gobbo - Maddalena And The Prince 24bit Hi-Res 2019 download Maddalena Del Gobbo - Maddalena And The Prince 24bit Hi-Res 2019
Lossless
English
1.4 GB
4.0
/images/5/5/maddalena-del-gobbo-maddalena-and-the-prince-24bit-hi-res-2019.jpg
Ulrich Lask - Lask 24bit Hi-Res 1982 download Ulrich Lask - Lask 24bit Hi-Res 1982
Lossless
English
780.8 MB
4.7
/images/5/0/ulrich-lask-lask-24bit-hi-res-1982.jpg
Beyonce - The Lion King - The Gift 24bit Hi-Res 2019 download Beyonce - The Lion King - The Gift 24bit Hi-Res 2019
Lossless
English
619.4 MB
4.3
/images/5/1/beyonce-the-lion-king-the-gift-24bit-hi-res-2019.jpg
Neave Trio - Her Voice -was95 24-96 2019 download Neave Trio - Her Voice -was95 24-96 2019
Lossless
English
1.2 GB
4.0
/images/5/5/neave-trio-her-voice-was95-24-96-2019.jpg