Files 42316
» » Caetano Veloso-Cê Eac Flac Cue TntVillage
Language: Portuguese
Size: 285.7 MB
Votes: 970
Downloaded: 74
Category: Lossless
Format: MP3, FLAC
4.5

File list

  • (1) outro - Caetano Veloso.flac (19.0 MB)
  • (10) porquê - Caetano Veloso.flac (22.1 MB)
  • (11) um sonho - Caetano Veloso.flac (16.0 MB)
  • (12) o herói - Caetano Veloso.flac (23.0 MB)
  • (2) minhas lágrimas - Caetano Veloso.flac (27.0 MB)
  • (3) rocks - Caetano Veloso.flac (24.7 MB)
  • (4) deusa urbana - Caetano Veloso.flac (21.3 MB)
  • (5) waly salomão - Caetano Veloso.flac (16.1 MB)
  • (6) não me arrependo - Caetano Veloso.flac (22.6 MB)
  • (7) musa híbrida - Caetano Veloso.flac (24.7 MB)
  • (8) odeio - Caetano Veloso.flac (37.6 MB)
  • (9) homem - Caetano Veloso.flac (31.5 MB)
  • 00._%CAetanoVeloso%Cê%.nfo (2.3 KB)
  • Caetano Veloso - Ce - Front.jpg (86.2 KB)
  • Caetano Veloso - Cê.log (12.4 KB)
  • Caetano Veloso - Cê.m3u8 (0.9 KB)
  • Cê.cue (2.0 KB)

p/Abraçaço/04 Caetano Veloso - O Império Da Le. lac Track gain : -. 3 dB Peak : . 80896 CRC32 hash (test run) : B4BF9AE7 CRC32 hash : B4BF9AE7 CRC32 hash (skip zero) : E0C8DEEF AccurateRip v1 signature : 13C589A1 (404583A5.

p/Abraçaço/04 Caetano Veloso - O Império Da Le. 80896 CRC32 hash (test run) : B4BF9AE7 CRC32 hash : B4BF9AE7 CRC32 hash (skip zero) : E0C8DEEF AccurateRip v1 signature : 13C589A1 (404583A5

Caetano Veloso - Muitos Carnaval10 La Barca Caetano Veloso

Caetano Veloso - Muitos Carnaval10 La Barca Caetano Veloso.

Note: This guide assumes that EAC is has been configured for secure ripping, if not please follow this guide. Open EAC and insert a CD into the drive.

Caetano Emanuel Viana Telles Veloso (Portuguese pronunciation: ; born August 7, 1942) is a Brazilian composer, singer, guitarist, writer, and political activist. Veloso first became known for his participation in the Brazilian musical movement Tropicalismo, which encompassed theatre, poetry and music in the 1960s, at the beginning of the Brazilian military dictatorship

to Caetano Veloso-Cê(TntVillage) Music Lossless. You cannot download any of those files from here.

to Caetano Veloso-Cê(TntVillage) Music Lossless. org Caetano Veloso - Cê musica Rock - Test&Copy + Cue - Progetto Made In Brasil(Lossless Crew). com Caetano Veloso - Ce Music. info Caetano Veloso-Cê(TntVillage) Musica. org Caetano Veloso - Ce Music.

1. "Vermelho" – 3:44 2. "Fugiu Com A Novela" – 3:16 3. "Baú" – 4:25 4. "Boa Sorte/Good Luck" (Featuring Ben Harper) – 3:55 5. "Amado" – 4:11 6. "Pirraça" – 3:25 7. "Você Vai Me Destruir" – 4:31 8. "Absurdo" – 3:27 9. "Quem Irá Nos Proteger?"

1. 7 MB. estampa-ao-vivo-f. Source: CD Year: 1995 Label:Verve World ‎ Genre: Tango, Rumba, Bolero Codec: FLAC Quality: Lossless Included: LOG, CUE, COVERS Ripped by: kilgortrout. 21. 6 KB. estampa-ao-vivo-b. 16. 7 KB. Caetano Veloso - Fina Estampa - Ao Vivo. 1. 9 KB. Fina Estampa - Ao Vivo. Tracklist :. 1 O Samba E O Tango 3:43 2 Lamento Borincano 6:41 3 Fina Estampa 2:53 4 Cucurrucucú Paloma 3:55 5 Haiti 5:04 6 Canção De Amor 2:39 7 Suas Mãos 2:49 8 Lábios Que Beijei 4:04 9 Você Esteve Com Meu Bem? 2:48 10 Vete De Mí 2:57 11 La Barca 4:59 12 Ay, Amor!

Brazilian Jazz, Bossa Nova, MPB, Latin) Caetano Veloso & Gilberto Gil - Two Friends, One Century of Music (2CD) - 2016, FLAC (tracks), lossless. Caetano Veloso-Cê(TntVillage).

Brazilian Jazz, Bossa Nova, MPB, Latin) Caetano Veloso & Gilberto Gil - Two Friends, One Century of Music (2CD) - 2016, FLAC (tracks), lossless. to 286 MB 2012-03-31 0 0. Caetano Veloso-Livro(TntVillage). to 347 MB 2012-07-05 0 0. Caetano Veloso - Muitos Carnavais. to 227 MB 2015-08-21 0 0. Caetano Veloso - Fina Estampa Ao Vivo (EAC). to 681 MB 2015-09-16 0 0. Caetano Veloso - Fina Estampa (EAC). to 668 MB 2016-01-18 0 1. Caetano Veloso - Sozinho Remix (1999).

flac 27 MB. Mr Lennon. MR LENNON - FRONT BY TNTVILLAGE. m3u8 0 MB. Mr. Lennon-Cover. jpg 0 MB. MR LENNON - back BY TNTVILLAGE. MR LENNON - cd BY TNTVILLAGE. gif 0 MB. TntVillage.





Artist: Caetano Veloso
Title Of Album: Cê
Etichetta: Universal Music
Pubblicazione: 2006
Genre: MPB
Style: Rock
Source: CD
Playing Time: 49.14
Total Size: 285,62 MB
Quality: FLAC+Cue+Log+Info+Cover
Bitrate: Lossless


1. Outro [03.00]
2. Minhas lágrimas [05.09]
3. Rocks [03.36]
4. Deusa urbana [03.46]
5. Waly salomão [03.24]
6. Não me arrependo [04.08]
7. Musa híbrida [04.21]
8. Odeio [05.58]
9. Homem [04.46]
10. Porquê? [03.53]
11. Um sonho [03.23]
12. O herói [03.46]


Un brusco cambio di rotta, dopo le raffinatezze melodiche e gli omaggi al repertorio classico americano in cui il grande cantautore bahiano si era cimentato negli ultimi tempi. Pungolato dai giovani collaboratori che hanno lavorato con lui in studio a Rio de Janeiro, un quartetto che include Ricardo Dias Gomes (basso e piano Rhodes), Marcelo Callado (batteria), Pedro Sá (chitarra) e il figlio Moreno (gli ultimi due firmano anche la produzione), Veloso sforna un disco di “rock” elettrico: un rock intellettuale e scheletrico, aguzzo e nervoso, che ricorda Arto Lindsay e Marc Ribot e non certo il mainstream, in qualche caso Lou Reed e i primissimi Talking Heads. Tra i ritmi marziali di “Outro” e i riff secchi di “Rocks” e “Odeio” qualcuno faticherà a riconoscerlo; e anche i momenti più intimi del disco, come “Minhas lágrimas” e “Homem”, lo portano su sentieri melodicamente contorti e distanti da quelli frequentati di recente. “Grazie a Pedro e a Moreno”, ha spiegato l’autore presentando il disco, “ho potuto assorbire i cambiamenti e capire dove si sta orientando la musica di oggi”. Le dodici tracce contenute nel cd, inedite e cantate in portoghese, sono tutte firmate da Caetano, che ha anche curato la grafica di copertina. Una curiosità: il titolo “Cê” è un’abbreviazione del vocabolo você, “tu” (o “lei”), che si usa nella conversazione rivolgendosi a un’altra persona.

Quote:

Exact Audio Copy V1.0 beta 3 from 29. August 2011
EAC extraction logfile from 31. March 2012, 18:33
Caetano Veloso / Cê
Used drive : HL-DT-STDVDRAM GSA-T40N Adapter: 0 ID: 0
Read mode : Secure
Utilize accurate stream : Yes
Defeat audio cache : Yes
Make use of C2 pointers : No
Read offset correction : 667
Overread into Lead-In and Lead-Out : No
Fill up missing offset samples with silence : Yes
Delete leading and trailing silent blocks : No
Null samples used in CRC calculations : Yes
Used interface : Native Win32 interface for Win NT & 2000
Gap handling : Appended to previous track
Used output format : User Defined Encoder
Selected bitrate : 896 kBit/s
Quality : High
Add ID3 tag : No
Command line compressor : C:Program FilesExact Audio CopyFLACFLAC.EXE
Additional command line options : -8 -V -T "ARTIST=%artist%" -T "TITLE=%title%" -T "ALBUM=%albumtitle%" -T "DATE=%year%" -T "TRACKNUMBER=%tracknr%" -T "GENRE=%genre%" -T "COMMENT=%comment%" -T "BAND=%albuminterpret%" -T "ALBUMARTIST=%albuminterpret%" -T "COMPOSER=%composer%" %haslyrics%--tag-from-file=LYRICS="%lyricsfile%"%haslyrics% -T "DISCNUMBER=%cdnumber%" -T "TOTALDISCS=%totalcds%" -T "TOTALTRACKS=%numtracks%" %hascover%--picture="%coverfile%"%hascover% %source% -o %dest%
TOC of the extracted CD
Track | Start | Length | Start sector | End sector
-
1 | 0:00.00 | 3:00.12 | 0 | 13511
2 | 3:00.12 | 5:09.19 | 13512 | 36705
3 | 8:09.31 | 3:36.58 | 36706 | 52963
4 | 11:46.14 | 3:46.25 | 52964 | 69938
5 | 15:32.39 | 3:24.13 | 69939 | 85251
6 | 18:56.52 | 4:08.60 | 85252 | 103911
7 | 23:05.37 | 4:21.33 | 103912 | 123519
8 | 27:26.70 | 5:58.35 | 123520 | 150404
9 | 33:25.30 | 4:46.08 | 150405 | 171862
10 | 38:11.38 | 3:53.03 | 171863 | 189340
11 | 42:04.41 | 3:23.47 | 189341 | 204612
12 | 45:28.13 | 3:46.14 | 204613 | 221576
Track 1
Filename F:MY EAC[.FLAC]Caetano Veloso - Ce outro - Caetano Veloso.flac
Pre-gap length 0:00:02.00
Peak level 97.2 %
Extraction speed 2.0 X
Track quality 100.0 %
Test CRC 67C78F36
Copy CRC 67C78F36
Accurately ripped (confidence 1) [C673149C] (AR v1)
Copy OK
Track 2
Filename F:MY EAC[.FLAC]Caetano Veloso - Ce minhas lágrimas - Caetano Veloso.flac
Peak level 96.2 %
Extraction speed 2.4 X
Track quality 100.0 %
Test CRC 03DD597B
Copy CRC 03DD597B
Accurately ripped (confidence 1) [ED148869] (AR v1)
Copy OK
Track 3
Filename F:MY EAC[.FLAC]Caetano Veloso - Ce rocks - Caetano Veloso.flac
Peak level 98.3 %
Extraction speed 2.2 X
Track quality 99.9 %
Test CRC 4B04BED1
Copy CRC 4B04BED1
Accurately ripped (confidence 1) [362110F0] (AR v1)
Copy OK
Track 4
Filename F:MY EAC[.FLAC]Caetano Veloso - Ce deusa urbana - Caetano Veloso.flac
Peak level 97.1 %
Extraction speed 2.6 X
Track quality 100.0 %
Test CRC 1039F116
Copy CRC 1039F116
Accurately ripped (confidence 1) [FF4A1392] (AR v1)
Copy OK
Track 5
Filename F:MY EAC[.FLAC]Caetano Veloso - Ce waly salomão - Caetano Veloso.flac
Peak level 97.1 %
Extraction speed 2.4 X
Track quality 99.9 %
Test CRC 32A9654E
Copy CRC 32A9654E
Accurately ripped (confidence 1) [EB2F8C31] (AR v1)
Copy OK
Track 6
Filename F:MY EAC[.FLAC]Caetano Veloso - Ce não me arrependo - Caetano Veloso.flac
Peak level 97.1 %
Extraction speed 2.8 X
Track quality 100.0 %
Test CRC 02158971
Copy CRC 02158971
Accurately ripped (confidence 1) [D193852E] (AR v1)
Copy OK
Track 7
Filename F:MY EAC[.FLAC]Caetano Veloso - Ce musa híbrida - Caetano Veloso.flac
Peak level 97.1 %
Extraction speed 3.1 X
Track quality 100.0 %
Test CRC D25DEA9A
Copy CRC D25DEA9A
Accurately ripped (confidence 1) [C65519C7] (AR v1)
Copy OK
Track 8
Filename F:MY EAC[.FLAC]Caetano Veloso - Ce odeio - Caetano Veloso.flac
Peak level 97.1 %
Extraction speed 3.4 X
Track quality 100.0 %
Test CRC 4EC6AE3D
Copy CRC 4EC6AE3D
Accurately ripped (confidence 1) [623B2CD5] (AR v1)
Copy OK
Track 9
Filename F:MY EAC[.FLAC]Caetano Veloso - Ce homem - Caetano Veloso.flac
Pre-gap length 0:00:01.25
Peak level 97.1 %
Extraction speed 3.2 X
Track quality 100.0 %
Test CRC 7873320F
Copy CRC 7873320F
Accurately ripped (confidence 1) [D62C2F3B] (AR v1)
Copy OK
Track 10
Filename F:MY EAC[.FLAC]Caetano Veloso - Ce porquê - Caetano Veloso.flac
Peak level 97.1 %
Extraction speed 2.8 X
Track quality 99.9 %
Test CRC BCC16D3F
Copy CRC BCC16D3F
Accurately ripped (confidence 1) [0C4EAC43] (AR v1)
Copy OK
Track 11
Filename F:MY EAC[.FLAC]Caetano Veloso - Ce um sonho - Caetano Veloso.flac
Peak level 94.5 %
Extraction speed 2.5 X
Track quality 100.0 %
Test CRC 8BD9A7E6
Copy CRC 8BD9A7E6
Accurately ripped (confidence 1) [761A91FB] (AR v1)
Copy OK
Track 12
Filename F:MY EAC[.FLAC]Caetano Veloso - Ce o herói - Caetano Veloso.flac
Pre-gap length 0:00:02.88
Peak level 97.1 %
Extraction speed 1.9 X
Track quality 100.0 %
Test CRC 50CD5CF7
Copy CRC 50CD5CF7
Accurately ripped (confidence 1) [C0AE9D06] (AR v1)
Copy OK
All tracks accurately ripped
No errors occurred
End of status report
==== Log checksum 8151D6D6934B1B836F1FD08BEB0B4EE5B6A93409CCC01E99800E65701E8A1199 ====


Per i primi 10: 24 su 24:80/90 Kb/s

Related music:
Caetano e Maria Gadu - Multishow ao Vivo DVD9 2011 download Caetano e Maria Gadu - Multishow ao Vivo DVD9 2011
DVD
Portuguese
8.0 GB
4.5
/images/5/8/caetano-e-maria-gadu-multishow-ao-vivo-dvd9-2011.jpg
Chico Buarque e Caetano Veloso-Melhores Momentos de Chico e Caetano ao Vivo download Chico Buarque e Caetano Veloso-Melhores Momentos de Chico e Caetano ao Vivo
Lossless
Portuguese
247.4 MB
4.5
/images/5/0/chico-buarque-e-caetano-veloso-melhores-momentos-de-chico-e-caetano-ao-vivo.jpg
Caetano Veloso - Fiina Estampa ao Vivo Flac download Caetano Veloso - Fiina Estampa ao Vivo Flac
Lossless
Portuguese
361.6 MB
4.2
/images/5/2/caetano-veloso-fiina-estampa-ao-vivo-flac-.jpg
Caetano Veloso - Serie Grandes Nomes FLAC 1996 Disc 4 download Caetano Veloso - Serie Grandes Nomes FLAC 1996 Disc 4
Album
Portuguese
354.1 MB
4.3
/images/5/6/caetano-veloso-serie-grandes-nomes-flac-1996-disc-4.jpg
Caetano Veloso - Serie Grandes Nomes FLAC 1996 Disc 2 download Caetano Veloso - Serie Grandes Nomes FLAC 1996 Disc 2
Album
Portuguese
370.2 MB
4.6
/images/5/5/caetano-veloso-serie-grandes-nomes-flac-1996-disc-2.jpg
Caetano e Maria Gadu - Multishow Ao Vivo Flac Cue download Caetano e Maria Gadu - Multishow Ao Vivo Flac Cue
Lossless
Portuguese
489.5 MB
4.7
/images/5/0/caetano-e-maria-gadu-multishow-ao-vivo-flac-cue-.jpg
Caetano Veloso - Muitos Carnavais Flac download Caetano Veloso - Muitos Carnavais Flac
Album
Portuguese
226.5 MB
4.8
/images/5/0/caetano-veloso-muitos-carnavais-flac-.jpg
Caetano Veloso-Omaggio a Federico e Giulietta Eac Flac Cue TntVillage download Caetano Veloso-Omaggio a Federico e Giulietta Eac Flac Cue TntVillage
Lossless
Portuguese
374.8 MB
4.0
/images/5/4/caetano-veloso-omaggio-a-federico-e-giulietta-eac-flac-cue-tntvillage.jpg
Caetano Veloso Gal Costa Gilberto Gil - Ao Vivo Na Bahia Flac download Caetano Veloso Gal Costa Gilberto Gil - Ao Vivo Na Bahia Flac
Lossless
Portuguese
250.0 MB
4.6
/images/5/3/caetano-veloso-gal-costa-gilberto-gil-ao-vivo-na-bahia-flac-.jpg
Caetano Veloso-Livro Eac Flac Cue TntVillage download Caetano Veloso-Livro Eac Flac Cue TntVillage
Lossless
Portuguese
347.0 MB
4.5
/images/5/4/caetano-veloso-livro-eac-flac-cue-tntvillage.jpg