Files 42316
» » Bastille - Doom Days 24Bit 96000Hz 2019
Language: English
Size: 828.6 MB
Votes: 575
Downloaded: 499
Category: Lossless
Format: MP3, FLAC
4.0

File list

Bastille - Doom Days (2019) 24Bit 96000Hz
  • 01 - Quarter Past Midnight.flac (68.8 MB)
  • 02 - Bad Decisions.flac (67.2 MB)
  • 03 - The Waves.flac (80.9 MB)
  • 04 - Divide.flac (76.6 MB)
  • 05 - Million Pieces.flac (89.1 MB)
  • 06 - Doom Days.flac (47.0 MB)
  • 07 - Nocturnal Creatures.flac (79.0 MB)
  • 08 - 4AM.flac (77.2 MB)
  • 09 - Another Place.flac (74.4 MB)
  • 10 - Those Nights.flac (90.6 MB)
  • 11 - Joy.flac (67.6 MB)
  • [TGx]Downloaded from torrentgalaxy.org .txt (0.6 KB)
  • big.jpg (9.9 MB)
  • cover.jpg (257.7 KB)
  • dr14.txt (1.3 KB)
  • Torrent Downloaded from Glodls.to.txt (0.2 KB)
  • Torrent downloaded from limetorrents.cc.txt (0.1 KB)
  • Torrent Downloaded from worldwidetorrents.to (0.1 KB)

4. 8 MB. 07 - Nocturnal Creatures.

4. 7. 4 MB. 09 - Another Place.

Doom Days, Bastille’s grippingly confident third album, is a record of hope for turbulent times

Doom Days, Bastille’s grippingly confident third album, is a record of hope for turbulent times. Made by Dan Smith with bandmates Kyle Simmons, Will Farquarson and Chris ‘Woody’ Wood, and producer Mark Crew, it sees the Grammy nominated, Brit winning four-piece stretch out and open-up like never before. Doom Days marks something of a shift in perception from its widely acclaimed N. predecessor ‘Wild World’, which confronted the world and the actions of those in power.

Quarter Past Midnight, 03:19. Bad Decisions, 03:09.

Doom Days is the third studio album by British indie pop band Bastille, released on 14 June 2019 by Virgin EMI Records

Doom Days is the third studio album by British indie pop band Bastille, released on 14 June 2019 by Virgin EMI Records. It was preceded by the release of five singles: "Quarter Past Midnight", "Doom Days", "Joy", "Those Nights" and "Another Place". Those Nights" was premiered on Beats 1 with Zane Lowe on 4 June 2019. The band will play music festivals in the UK and across Europe from May to August in support of the album.

Released December 6, 2019. The extended version of Bastille’s third record – Doom Days – out December the 6th, 2019. Doom Days: This Got Out of Hand! Tracklist. Doom Days: This Got Out of Hand! Q&A.

Bastille - Essentials (2019) Mp3 320kbps Songs. Posted in MP3. 11. 15. 9 months ago. 2. 9. Bastille - Discography (320).


Quality-Lossless
Release-2019
Duration-00:40:01
File Size-868.9 MB
Genre-Alternative
Cover Size-1400px

Analyzed: Doom Days / Artist: Bastille
DR Peak RMS Duration Title [codec]
DR5 -0.00 dB -8.03 dB 3:18 01 - Quarter Past Midnight [flac]
DR6 -0.00 dB -7.92 dB 3:08 02 - Bad Decisions [flac]
DR6 -0.07 dB -8.74 dB 4:00 03 - The Waves [flac]
DR6 -0.00 dB -8.81 dB 3:52 04 - Divide [flac]
DR5 -0.41 dB -7.78 dB 4:11 05 - Million Pieces [flac]
DR6 -0.08 dB -9.33 dB 2:18 06 - Doom Days [flac]
DR5 -0.00 dB -7.83 dB 3:52 07 - Nocturnal Creatures [flac]
DR7 -0.00 dB -12.25 dB 4:07 08 - 4AM [flac]
DR5 -0.43 dB -7.77 dB 3:31 09 - Another Place [flac]
DR5 -0.08 dB -8.15 dB 4:29 10 - Those Nights [flac]
DR4 -0.80 dB -7.32 dB 3:12 11 - Joy [flac]
Number of files: 11
Official DR value: DR5
Sampling rate: 96000 Hz
Average bitrate: 2859kbs
Bits per sample: 24 bit

Related music:
Amanda Martinez - LIBRE 24bit Hi-Res 2019 download Amanda Martinez - LIBRE 24bit Hi-Res 2019
Lossless
English
527.0 MB
4.3
/images/5/7/amanda-martinez-libre-24bit-hi-res-2019.jpg
Bad Wolves - N A T I O N 24bit Hi-Res 2019 download Bad Wolves - N A T I O N 24bit Hi-Res 2019
Lossless
English
546.7 MB
4.8
/images/5/2/bad-wolves-n-a-t-i-o-n-24bit-hi-res-2019.jpg
Bishop Briggs - CHAMPION 24bit Hi-Res 2019 download Bishop Briggs - CHAMPION 24bit Hi-Res 2019
Lossless
English
358.0 MB
4.1
/images/5/7/bishop-briggs-champion-24bit-hi-res-2019.jpg
Bastille - Doom Days Mp3 2019 320 kbps download Bastille - Doom Days Mp3 2019 320 kbps
MP3
English
93.8 MB
4.4
/images/5/5/bastille-doom-days-mp3-2019-320-kbps.jpg
Of Monsters and Men - FEVER DREAM 24bit Hi-Res 2019 download Of Monsters and Men - FEVER DREAM 24bit Hi-Res 2019
Lossless
English
904.8 MB
4.4
/images/5/4/of-monsters-and-men-fever-dream-24bit-hi-res-2019.jpg
Electric Guest - KIN Flac 2019 download Electric Guest - KIN Flac 2019
Lossless
English
233.2 MB
4.8
/images/5/2/electric-guest-kin-flac-2019.jpg
Aurora - A Different Kind Of Human – Step 2 24bit Hi-Res 2019 download Aurora - A Different Kind Of Human – Step 2 24bit Hi-Res 2019
Lossless
English
491.0 MB
4.7
/images/5/4/aurora-a-different-kind-of-human-e28093-step-2-24bit-hi-res-2019.jpg
banks - III 24bit Hi-Res 2019 download banks - III 24bit Hi-Res 2019
Lossless
English
568.1 MB
4.1
/images/5/1/banks-iii-24bit-hi-res-2019.jpg