Files 42316
» » Maddalena Del Gobbo - Maddalena And The Prince 24bit Hi-Res 2019
Language: English
Size: 1.4 GB
Votes: 847
Downloaded: 36
Category: Lossless
Format: MP3, FLAC
4.0

File list

Maddalena Del Gobbo - Maddalena And The Prince (2019) [24bit Hi-Res]
  • 01 - 1. Adagio.flac (103.5 MB)
  • 02 - 2. Allegro di molto.flac (49.5 MB)
  • 03 - 3. Menuet - Allegretto.flac (50.0 MB)
  • 04 - 1. Moderato.flac (67.0 MB)
  • 05 - 2. Andante.flac (94.7 MB)
  • 06 - 3. Presto.flac (37.6 MB)
  • 07 - 1. Adagio.flac (96.3 MB)
  • 08 - 2. Allegro (tempo giusto).flac (103.7 MB)
  • 09 - 3. Menuetto.flac (62.7 MB)
  • 10 - 4. Rondo (scherzando).flac (50.4 MB)
  • 11 - 5. Hongarese.flac (15.0 MB)
  • 12 - 1. Adagio cantabile.flac (82.4 MB)
  • 13 - 2. Allegro di molto.flac (59.8 MB)
  • 14 - 3. Menuet (Allegretto) - Trio - Menuet.flac (43.2 MB)
  • 15 - 1. Allegro spiritoso.flac (57.3 MB)
  • 16 - 2. Menuetto - Trio - Menuetto.flac (51.4 MB)
  • 17 - 3. Rondo (Allegretto).flac (55.8 MB)
  • 18 - 1. Adagio cantabile.flac (100.9 MB)
  • 19 - 2. Allegro di molto.flac (49.3 MB)
  • 20 - 3. Menuet.flac (48.8 MB)
  • 21 - 4. Polonaise.flac (25.0 MB)
  • 22 - 5. Adagio.flac (23.1 MB)
  • 23 - 6. Menuet.flac (29.9 MB)
  • 24 - 7. Fuga - Presto.flac (33.8 MB)
  • [TGx]Downloaded from torrentgalaxy.org .txt (0.6 KB)
  • cover.jpg (389.9 KB)
  • dr14.txt (2.2 KB)
  • Maddalena and the Prince - Booklet.pdf (2.4 MB)
  • Torrent Downloaded from Glodls.to.txt (0.2 KB)
  • Torrent downloaded from limetorrents.cc.txt (0.1 KB)
  • Torrent Downloaded from worldwidetorrents.to (0.1 KB)

Maddalena del Gobbo spielt Baryton, was vermutlich den ersten Teil des CD-Titels "Maddalena and the .

Maddalena del Gobbo spielt Baryton, was vermutlich den ersten Teil des CD-Titels "Maddalena and the Prince" erklärt. Aber wer ist der Prinz? Maddalena Del Gobbo is at Schloss Esterházy. Maddalena and the Prince is the second of Maddalena del Gobbo’s concept albums for Deutsche Gramophon, following on from Henriette: the Princess of the Viol – a disc of viola da gamba music originally dedicated to young Princess Anne Henriette of F. addalena Del Gobbo. 25 August ·. I hope you will enjoy this short video we made for the new album "MADDALENA AND THE PRINCE" (Deutsche Grammophon, at the wonderful Esterházy castle!

Maddalena del Gobbo is a gambist for a new age: she is young, female, glamorous, and has a. .Maddalena and the Prince is launched to critical acclaim

Maddalena and the Prince is launched to critical acclaim.

Album: Maddalena And The Prince Artist: Maddalena Del Gobbo Genre: Classical Date: 2019.

info ince-(2019)- Music. txt2 KB. Maddalena and the Prince - Booklet. pdf2,502 KB. Torrent Downloaded from Glodls. txt237 B. Torrent downloaded from limetorrents. co Maddalena Del Gobbo - Maddalena And The Prince (2019) Music. ch ince-(2019)- Music. eu Maddalena Del Gobbo - Maddalena And The Prince (2019) audio.

Maddalena Del Gobbo is the only Deutsche Grammophon Viola da Gamba recording artist. An award winning musician, she has performed extensively across Europe and in Asia

Maddalena Del Gobbo is the only Deutsche Grammophon Viola da Gamba recording artist. An award winning musician, she has performed extensively across Europe and in Asia. Maddalena first came in contact with the viola da gamba when she entered a record shop on the heart of Vienna and was mesmerized by an enchanting sound she would never forget. She still finished her studies as a cellist, received a MA and performed in many concert halls as a soloist and chamber musician.

Maddalena Del Gobbo’s new baroque album, Maddalena And The Prince, is out now. This unique album, recorded on location at the Esterházy Palace together with musicians from the Vienna Philharmonic Orchestra, features music commissioned by Prince Nikolaus Esterházy on a. This unique album, recorded on location at the Esterházy Palace together with musicians from the Vienna Philharmonic Orchestra, features music commissioned by Prince Nikolaus Esterházy on an instrument rarely recorded before – the baryton. Sensuality, brilliance and an utterly perfect technique – Heinz Sichrovsky, NEWS (Austria). Join me in dipping into the world of Prince Nikolaus Esterházy, who was known as ‘the Magnificent’, and his beloved music, welcomes Maddalena Del Gobbo. I Virtuosi Italiani, Marzio Conti - Nino Rota - Concertos (2002). Various Artists - Work With Hip Hop Jazz (2019) FLAC. VA - Super Chic Boutique (Freaky Freedom Sound and Music) (2019). Marc Minkowski - Handel La Resurrezione (1996). Various Artists - Allegros (2019).

Music: Album: Maddalena And The Prince Artist: Maddalena Del Gobbo Genre: Classical Date: 2019. Tags: 2019, Del, Gobbo, Maddalena, Prince.


Quality-Lossless
Release-2019
Duration-01:13:34
File Size-1.46 GB
Genre-Classical
Cover Size-1400px

Analyzed: Maddalena And The Prince / Artist: Maddalena Del Gobbo
DR Peak RMS Duration Title [codec]
DR13 -2.98 dB -23.78 dB 5:38 01 - 1. Adagio [flac]
DR13 -0.44 dB -20.46 dB 2:33 02 - 2. Allegro di molto [flac]
DR13 -4.18 dB -22.58 dB 2:41 03 - 3. Menuet: Allegretto [flac]
DR11 -2.08 dB -18.83 dB 3:25 04 - 1. Moderato [flac]
DR14 -2.90 dB -22.86 dB 5:05 05 - 2. Andante [flac]
DR13 -0.46 dB -18.11 dB 1:56 06 - 3. Presto [flac]
DR13 -5.45 dB -24.61 dB 4:53 07 - 1. Adagio [flac]
DR13 -6.83 dB -24.43 dB 5:12 08 - 2. Allegro (tempo giusto) [flac]
DR13 -8.19 dB -26.25 dB 3:12 09 - 3. Menuetto [flac]
DR14 -2.71 dB -22.72 dB 2:29 10 - 4. Rondo (scherzando) [flac]
DR12 -8.70 dB -24.69 dB 0:45 11 - 5. Hongarese [flac]
DR11 -3.22 dB -21.81 dB 4:28 12 - 1. Adagio cantabile [flac]
DR12 -2.83 dB -19.71 dB 3:10 13 - 2. Allegro di molto [flac]
DR12 -3.99 dB -21.63 dB 2:22 14 - 3. Menuet (Allegretto) - Trio - Menuet [flac]
DR13 -2.47 dB -20.39 dB 3:00 15 - 1. Allegro spiritoso [flac]
DR13 -2.41 dB -20.52 dB 2:46 16 - 2. Menuetto - Trio - Menuetto [flac]
DR12 -3.34 dB -21.54 dB 3:00 17 - 3. Rondo (Allegretto) [flac]
DR12 -2.77 dB -22.79 dB 5:34 18 - 1. Adagio cantabile [flac]
DR12 -2.91 dB -20.14 dB 2:37 19 - 2. Allegro di molto [flac]
DR14 -1.22 dB -22.10 dB 2:37 20 - 3. Menuet [flac]
DR13 -0.63 dB -17.56 dB 1:16 21 - 4. Polonaise [flac]
DR11 -9.41 dB -29.07 dB 1:19 22 - 5. Adagio [flac]
DR12 -3.14 dB -19.98 dB 1:35 23 - 6. Menuet [flac]
DR11 -0.91 dB -18.65 dB 1:47 24 - 7. Fuga: Presto [flac]
Number of files: 24
Official DR value: DR13
Sampling rate: 96000 Hz
Average bitrate: 2637kbs
Bits per sample: 24 bit

Related music:
Linkin Park - Dynamic Mix 2015 download Linkin Park - Dynamic Mix 2015
Album
English
187.3 MB
4.4
/images/5/4/linkin-park-dynamic-mix-2015.jpg
Sara Sant'Ambrogio - Elgar, Piazzolla, Wolosoff 192hz-24bit 2019 download Sara Sant'Ambrogio - Elgar, Piazzolla, Wolosoff 192hz-24bit 2019
Lossless
English
2.2 GB
4.0
/images/5/1/sara-sant27ambrogio-elgar2c-piazzolla2c-wolosoff-192hz-24bit-2019.jpg
ZZ Top - Audiophile Collection vtwin88cube FLAC DR14 2019 download ZZ Top - Audiophile Collection vtwin88cube FLAC DR14 2019
Lossless
English
609.8 MB
4.0
/images/5/5/zz-top-audiophile-collection-vtwin88cube-flac-dr14-2019.jpg
Ulrich Lask - Lask 24bit Hi-Res 1982 download Ulrich Lask - Lask 24bit Hi-Res 1982
Lossless
English
780.8 MB
4.7
/images/5/0/ulrich-lask-lask-24bit-hi-res-1982.jpg
Neave Trio - Her Voice -was95 24-96 2019 download Neave Trio - Her Voice -was95 24-96 2019
Lossless
English
1.2 GB
4.0
/images/5/5/neave-trio-her-voice-was95-24-96-2019.jpg
Simple Minds - Street Fighting Years Flac 1989 download Simple Minds - Street Fighting Years Flac 1989
Lossless
English
387.0 MB
4.2
/images/5/6/simple-minds-street-fighting-years-flac-1989.jpg