Files 42316
» » James Blunt - Some Kind of Trouble - Limited Edition Flac 2010
Language: English
Size: 330.0 MB
Votes: 011
Downloaded: 42
Category: Lossless
Format: MP3, FLAC
4.8

File list

James Blunt - Some Kind of Trouble - Limited Edition (2010) Flac
  • 01 - Stay The Night.flac (26.1 MB)
  • 02 - Dangerous.flac (22.7 MB)
  • 03 - Best Laid Plans.flac (23.9 MB)
  • 04 - So Far Gone.flac (26.3 MB)
  • 05 - No Tears.flac (24.8 MB)
  • 06 - Superstar.flac (25.8 MB)
  • 07 - These Are The Words.flac (24.3 MB)
  • 08 - Calling Out Your Name.flac (23.0 MB)
  • 09 - Heart Of Gold.flac (21.9 MB)
  • 10 - I'll Be Your Man.flac (28.7 MB)
  • 11 - If Time Is All I Have.flac (19.3 MB)
  • 12 - Epilog.flac (419.0 KB)
  • 13 - Turn Me On.flac (18.4 MB)
  • 14 - There She Goes.flac (25.9 MB)
  • 15 - Into The Dark.flac (18.1 MB)
  • [TGx]Downloaded from torrentgalaxy.org .txt (0.6 KB)
  • cover.jpg (413.9 KB)
  • dr14.txt (1.6 KB)
  • Torrent Downloaded from Glodls.to.txt (0.2 KB)
  • Torrent downloaded from limetorrents.cc.txt (0.1 KB)
  • Torrent Downloaded from worldwidetorrents.to (0.1 KB)

Performer: James Blunt Album: Some Kind Of Trouble Label: Atlantic Custard Records. Catalog 075678893018 Style: Soft Rock, Pop Rock Year: 2010 Format: FLAC (image . ue.

Performer: James Blunt Album: Some Kind Of Trouble Label: Atlantic Custard Records. Performer: James Blunt Album: Some Kind Of Trouble Label: Atlantic Custard Records. Tracklist: - 01. James Blunt - Stay The Night 02.

Рок, Панк, Метал, Альтернатива, Разное Скачать торрент James Blunt - Some Kind Of Trouble. Формат: MP3, tracks, 320kbps Год выпуска: 2010 Страна: UK Жанр: Pop rock, folk rock Продолжительность: 00:46:04 Описание: 1. Stay The Night 3:34 2. Dangerous 3:11 3. Best Laid Plans 3:29 4. So Far Gone 3:34 5. No Tears 3:49 6. Superstar 3:48 7. These Are The Words 3:22 8. Calling Out Your. Name 3:23 9. Heart Of Gold 3:30 1. 'll Be Your Man 3:36 1. f Time Is All I Have 3:36 1. urn Me On 2:30. Музыка, Рок, Панк, Метал, Альтернатива, Разное.

James Blunt explained in several interviews why there is an empty track at The label didn't want to have "Turn Me On" on the album. The album runs track one through eleven, and that's unlucky number 13 on the end with a gap between eleven and thirteen.

James Blunt – Best Laid Plans (2010). James Blunt – These Are The Words (Some Kind Of Trouble). James Blunt – l ll be your man. 3:22. James Blunt – these are the words Some Kind Of Troubl. :31. James Blunt – Turn Me On (Some Kind Of Trouble). James Blunt – turn me on Some Kind Of Trouble (2010). James Blunt – So Fоr Gone.

03 - Best Laid Plans. James Blunt - The Afterlove (2017). 2. 1 MB. 04 - So Far Gone. Posted in MP3. 47. 2 MB.

I Am Sonic Rain - Between Whales And Feverish Lights. Over The Ocean - Paper House. Marvel Hill - There's A Lighthouse At The End Of The World. Coasta - Rive En Beton. Adam Kesher - Challenging Nature. Devlin - Bud, Sweat And Beers. A Million Bright Ambassadors Of Morning - The Way Things Once Were. Dolphins Into The Future - The Music of Belief. Suuns - Zeroes QC. Kimika - Octobre.


Quality-Lossless
Release-2010
Duration-00:48:1
File Size-346.1 MB
Genre-Pop
Cover Size-1434px

Analyzed: Some Kind of Trouble - Limited Edition / Artist: James Blunt
DR Peak RMS Duration Title [codec]
DR7 -0.00 dB -10.12 dB 3:35 01 - Stay The Night [flac]
DR6 -0.21 dB -8.60 dB 3:10 02 - Dangerous [flac]
DR5 -0.00 dB -8.13 dB 3:29 03 - Best Laid Plans [flac]
DR5 -0.00 dB -8.15 dB 3:33 04 - So Far Gone [flac]
DR6 -0.00 dB -9.58 dB 3:49 05 - No Tears [flac]
DR6 -0.00 dB -8.98 dB 3:48 06 - Superstar [flac]
DR6 -0.00 dB -8.18 dB 3:22 07 - These Are The Words [flac]
DR6 -0.00 dB -9.03 dB 3:23 08 - Calling Out Your Name [flac]
DR7 -0.00 dB -9.72 dB 3:31 09 - Heart Of Gold [flac]
DR6 -0.00 dB -7.83 dB 3:35 10 - I'll Be Your Man [flac]
DR8 -0.00 dB -13.08 dB 3:35 11 - If Time Is All I Have [flac]
DR0 -inf dB -inf dB 0:05 12 - Epilog [flac]
DR5 -0.00 dB -6.84 dB 2:29 13 - Turn Me On [flac]
DR7 -0.00 dB -9.23 dB 3:52 14 - There She Goes [flac]
DR7 -0.00 dB -9.84 dB 2:50 15 - Into The Dark [flac]
Number of files: 15
Official DR value: DR6
Sampling rate: 44100 Hz
Average bitrate: 933kbs
Bits per sample: 16 bit

Related music:
Barbra Streisand - The Ultimate Collection 2010 CD FLAC Lossless Log download Barbra Streisand - The Ultimate Collection 2010 CD FLAC Lossless Log
Lossless
English
444.5 MB
4.3
/images/5/9/barbra-streisand-the-ultimate-collection-2010-cd-flac-lossless-log.jpg
James Blunt - Studio Discography 2004-2018 DJ 320kbps collection download James Blunt - Studio Discography 2004-2018 DJ 320kbps collection
MP3
English
748.1 MB
4.7
/images/5/3/james-blunt-studio-discography-2004-2018-dj-320kbps-collection.jpg
NOW 38 - Thats What i Call Music! 1997/CD/FLAC/Lossless/Log U.K. Series 2CD download NOW 38 - Thats What i Call Music! 1997/CD/FLAC/Lossless/Log U.K. Series 2CD
Lossless
English
1.1 GB
4.7
/images/5/0/now-38-thats-what-i-call-music21-19972fcd2fflac2flossless2flog-uk-series-2cd.jpg
James - The Best Of FLAC Soup 1998 download James - The Best Of FLAC Soup 1998
Lossless
English
500.2 MB
4.5
/images/5/6/james-the-best-of-flac-soup-1998.jpg
JAMES BLUNT-SOME KIND OF TROUBLE2010 MP3 V B R-WINKER download JAMES BLUNT-SOME KIND OF TROUBLE2010 MP3 V B R-WINKER
Album
English
59.0 MB
4.8
/images/5/5/james-blunt-some-kind-of-trouble2010-mp3-v-b-r-winker.jpg
Aurora - A Different Kind Of Human – Step 2 24bit Hi-Res 2019 download Aurora - A Different Kind Of Human – Step 2 24bit Hi-Res 2019
Lossless
English
491.0 MB
4.7
/images/5/4/aurora-a-different-kind-of-human-e28093-step-2-24bit-hi-res-2019.jpg
James Blunt - Some Kind Of Trouble 2010 [email protected] download James Blunt - Some Kind Of Trouble 2010 [email protected]
Album
English
96.3 MB
4.5
/images/5/3/james-blunt-some-kind-of-trouble-2010-32040bsbt.jpg
James Blunt – Trouble Revisited iTunes Version 2011 download James Blunt – Trouble Revisited iTunes Version 2011
Album
English
354.5 MB
4.2
/images/5/7/james-blunt-e28093-trouble-revisited-itunes-version-2011.jpg
Delain - Lucidity Flac US Second Edition 2006 download Delain - Lucidity Flac US Second Edition 2006
Lossless
English
532.5 MB
4.6
/images/5/0/delain-lucidity-flac-us-second-edition-2006.jpg