Files 42316
» » ILLENIUM - ASCEND -was95 24bit Hi-Res 2019
Language: English
Size: 726.4 MB
Votes: 028
Downloaded: 126
Category: Lossless
Format: MP3, FLAC
4.8

File list

ILLENIUM - ASCEND (2019) [24bit Hi-Res]-was95
  • 01 - I Care.flac (5.5 MB)
  • 02 - Hold On.flac (49.6 MB)
  • 03 - Good Things Fall Apart.flac (44.9 MB)
  • 04 - That’s Why.flac (49.3 MB)
  • 05 - Blood.flac (52.4 MB)
  • 06 - Take You Down.flac (44.0 MB)
  • 07 - All Together.flac (48.4 MB)
  • 08 - Crashing.flac (46.7 MB)
  • 09 - Broken Ones.flac (40.7 MB)
  • 10 - Every Piece Of Me.flac (39.7 MB)
  • 11 - Takeaway.flac (41.1 MB)
  • 12 - Sad Songs.flac (41.1 MB)
  • 13 - Pray.flac (59.6 MB)
  • 14 - In Your Arms.flac (45.0 MB)
  • 15 - Gorgeous.flac (56.1 MB)
  • 16 - Angel.flac (7.5 MB)
  • 17 - Lonely.flac (54.7 MB)
  • [TGx]Downloaded from torrentgalaxy.org .txt (0.6 KB)
  • cover.jpg (222.7 KB)
  • dr14.txt (2.0 KB)
  • Torrent Downloaded from Glodls.to.txt (0.2 KB)
  • Torrent downloaded from limetorrents.cc.txt (0.1 KB)
  • Torrent Downloaded from worldwidetorrents.to (0.1 KB)

Формат: FLAC (tracks) 24bit, 4. kHz, Lossless.

Формат: FLAC (tracks) 24bit, 4. ИСПОЛНИТЕЛЬ: Illenium. АЛЬБОМ, НАЗВАНИЕ: Ascend. Год, дата выхода: 2019. Страна: USA. ТОЧНЫЙ ЖАНР(Ы): Pop, Dubstep, Future Bass, Electronic.

Ascend is the third studio album by American DJ and producer Illenium, released on August 16, 2019, through Astrelwerks, making it his major-label debut. The album features six singles. Consisting of 17 songs, the album includes six previously released singles, "Take You Down", "Crashing", "Pray", "Good Things Fall Apart", "Takeaway", and "Blood". He announced the release date of the album and the following tour on June 12, via all his social medias.

24bit Hi-Res Flac Music. Music archive in lossless formats, from Trance to Classical to Rock

24bit Hi-Res Flac Music. Music archive in lossless formats, from Trance to Classical to Rock. 2 December at 15:16 ·. 24bit Hi-Res Flac Music added a button to help you learn more about them. 24bit Hi-Res Flac Music.

Ascend is the third studio album by Illenium. It was released on August 16, 2019, and features 17 songs

15. Gorgeous by Illenium, Bipolar Sunshine & Blanke Lyrics. Ascend is the third studio album by Illenium. It was released on August 16, 2019, and features 17 songs.

Illenium - Ascend (2019) Mp3 (320kbps). high score girl 03. 1 minute ago. legend zorro 2005. high score girl ii 03. christmas harmony 2018.

Flac download Illenium †Ascend (2019) Hi-Res music Lossless. Genre : Electronic, Dance. Format : Flac (tracks). Illenium – Ascend (2019) (24bit Hi-Res) FLAC. Category: Club,Dance, Electronic Flac Download Music Tags: dance electronic illenium Added: 23-09-2019, 08:44. Quality : 24bits – 4. kHz. Tracklist: 01. I Care (Intro) (00:33). Club,Dance, Electronic 22-08-2019, 08:30. site to download free music, roylty free music, library music, royaltyfree music, free music downloads sites, stock music licensing.

24-bit/96 kHz or 24-bit/192 kHz files should therefore more closely replicate the sound quality .

24-bit/96 kHz or 24-bit/192 kHz files should therefore more closely replicate the sound quality that the musicians and engineers were working with in the studio. As always, though, there are some people who can't hear a difference. So, if you can't see or hear a difference, save your mone. -What Hi-Fi?. "High Resolution Audio Initiative Gets Major Boost with New "Hi-Res MUSIC" Logo and Branding Materials for Digital Retailers". The Recording Industry Association of America(RIAA). Retrieved 21 August 2018.


Quality-Lossless
Release-2019
Duration-01:00:16
File Size-762 MB
Genre-Dubstep
Cover Size-1400px

Analyzed: ASCEND / Artist: Illenium
DR Peak RMS Duration Title [codec]
DR17 -0.20 dB -21.20 dB 0:33 01 - I Care (Intro) [flac]
DR3 -0.20 dB -5.64 dB 3:54 02 - Hold On (featuring Georgia Ku) [flac]
DR4 -0.20 dB -7.35 dB 3:35 03 - Good Things Fall Apart (with Jon Bellion) [flac]
DR3 -0.20 dB -7.06 dB 4:12 04 - That’s Why (featuring Goldn) [flac]
DR3 -0.20 dB -6.43 dB 4:08 05 - Blood (featuring Foy Vance) [flac]
DR3 -0.20 dB -6.85 dB 3:41 06 - Take You Down [flac]
DR3 -0.20 dB -6.78 dB 3:58 07 - All Together (featuring Oekiin) [flac]
DR6 -0.30 dB -7.96 dB 3:50 08 - Crashing (featuring Bahari) [flac]
DR3 -0.20 dB -6.03 dB 3:18 09 - Broken Ones (featuring Anna Clendening) [flac]
DR5 -0.20 dB -9.11 dB 3:43 10 - Every Piece Of Me (featuring Echos) [flac]
DR7 -0.33 dB -11.32 dB 3:29 11 - Takeaway (with The Chainsmokers featuring Lennon Stella) [flac]
DR4 -0.20 dB -7.62 dB 3:29 12 - Sad Songs (with Said the Sky featuring Annika Wells) [flac]
DR2 -0.20 dB -5.09 dB 4:54 13 - Pray (featuring Kameron Alexander) [flac]
DR3 -0.20 dB -6.23 dB 3:39 14 - In Your Arms (with X Ambassadors) [flac]
DR3 -0.20 dB -6.72 dB 4:37 15 - Gorgeous (with blanke featuring Bipolar Sunshine) [flac]
DR4 -0.20 dB -7.75 dB 0:41 16 - Angel (Lonely Prelude) [flac]
DR3 -0.20 dB -6.06 dB 4:29 17 - Lonely (featuring Chandler Leighton) [flac]
Number of files: 17
Official DR value: DR4
Sampling rate: 44100 Hz
Average bitrate: 1657kbs
Bits per sample: 24 bit

Related music:
Sarah Connor - Sarah Connor 2004 download Sarah Connor - Sarah Connor 2004
Lossless
English
307.2 MB
4.9
/images/5/1/sarah-connor-sarah-connor-2004.jpg
The Chainsmokers- Takeaway 320kbps 2019 feat. ILLENIUM & Lennon Stella download The Chainsmokers- Takeaway 320kbps 2019 feat. ILLENIUM & Lennon Stella
Single
English
8.0 MB
4.8
/images/5/1/the-chainsmokers-takeaway-320kbps-2019-feat-illenium-26-lennon-stella.jpg
Kristin Chenoweth - For The Girls -was95 24bit Hi-Res 2019 download Kristin Chenoweth - For The Girls -was95 24bit Hi-Res 2019
Lossless
English
484.7 MB
4.4
/images/5/1/kristin-chenoweth-for-the-girls-was95-24bit-hi-res-2019.jpg
4hero - Play With The Changes FLAC 2007 download 4hero - Play With The Changes FLAC 2007
Album
English
482.8 MB
4.0
/images/5/3/4hero-play-with-the-changes-flac-2007.jpg
Dubmatix - System Shakedown FLAC 2010 download Dubmatix - System Shakedown FLAC 2010
Lossless
English
404.5 MB
4.3
/images/5/8/dubmatix-system-shakedown-flac-2010.jpg
Pegz - Axis 2005 download Pegz - Axis 2005
Lossless
English
233.3 MB
4.9
/images/5/9/pegz-axis-2005.jpg
Pink The Truth About Love 2012 FLAC-Cue RLG download Pink The Truth About Love 2012 FLAC-Cue RLG
Lossless
English
361.8 MB
4.6
/images/5/4/pink-the-truth-about-love-2012-flac-cue-rlg.jpg
Illenium - Ascend 2019-Album download Illenium - Ascend 2019-Album
Album
English
139.2 MB
4.5
/images/5/1/illenium-ascend-2019-album.jpg
The Chainsmokers- Takeaway FLAC 2019 feat. ILLENIUM & Lennon Stella download The Chainsmokers- Takeaway FLAC 2019 feat. ILLENIUM & Lennon Stella
Lossless
English
23.7 MB
4.0
/images/5/9/the-chainsmokers-takeaway-flac-2019-feat-illenium-26-lennon-stella.jpg