Files 42316
» » Jesse Palter - Paper Trail 24bit Hi-Res 2019
Language: English
Size: 460.2 MB
Votes: 791
Downloaded: 26
Category: Lossless
Format: MP3, FLAC
4.6

File list

Jesse Palter - Paper Trail (2019) [24bit Hi-Res]
  • 01 - Sever the Ties.flac (45.1 MB)
  • 02 - TMI (Wouldn't You Like to Know).flac (54.6 MB)
  • 03 - Paper Trail.flac (55.5 MB)
  • 04 Waitin'.flac (50.5 MB)
  • 05 - Heavy is the Crown.flac (42.3 MB)
  • 06 - Wildfire.flac (40.8 MB)
  • 07 - Heart so Cold.flac (42.3 MB)
  • 08 - Alright in Time.flac (41.8 MB)
  • 09 - The Wrong Girl.flac (49.7 MB)
  • 10 - Goodbye My Friend.flac (37.1 MB)
  • [TGx]Downloaded from torrentgalaxy.org .txt (0.6 KB)
  • cover.jpg (430.6 KB)
  • dr14.txt (1.3 KB)
  • Torrent Downloaded from Glodls.to.txt (0.2 KB)
  • Torrent downloaded from limetorrents.cc.txt (0.1 KB)
  • Torrent Downloaded from worldwidetorrents.to (0.1 KB)

ARTIST: Jesse Palter. ALBUM, TITLE: Paper Trail. Detroit born/LA based, prolific singer/songwriter Jesse Palter releases full-length, debut album 'Paper Trail', featuring ten tracks of aggressive, piano-pounding pop/rock in the soulful vein of Carole King, Sarah McLachlan and Sara Bareilles.

ARTIST: Jesse Palter. Release year, date: 2019. STYLE: Pop, Singer-Songwriter. All of the songs on 'Paper Trail' were written by Palter, a t, and are autobiographical, capturing an intimate snapshot of her life. She focused on strengthening her creative muscles to explore what melodies, lyrics and chord changes worked best, allowing herself to be vulnerable, brave and brutally honest.

Real domain to LosslessBest - HD24BIT. COM, All Other Domains Are Fake!

Real domain to LosslessBest - HD24BIT.

Jesse Palter, Los Angeles. 58 beğenme · . 80 kişi bunun hakkında konuşuyor. Singer/Songwriter, Paper Trail coming July 19, 2019

Jesse Palter, Los Angeles. Singer/Songwriter, Paper Trail coming July 19, 2019  . In 2 days I am quite simply delighted to be singing at this beautiful theatre ⬇️ in Siena, Italy.

Category: Pop Flac Download Music Tags: Jesse Palter Pop Singer-Songwriter 2019 Added: 20-07-2019, 21:40. Number of tracks: 10 Official DR value: DR7 Samplerate: 44100 Hz Channels: 2 Bits per sample: 24 Bitrate: 1352 kbps Codec: FLAC . Artist: Jesse Palter Album: Paper Trail Released: 2019 Genre: Pop, Singer-Songwriter. Tracklisting: 1 Sever the Ties (04:00) 2 TMI (Wouldn't You Like to Know) (04:31) 3 Paper Trail (04:58) 4 Waitin' (04:27) 5 Heavy is the Crown (03:31) 6 Wildfire (03:59) 7 Heart so Cold (03:42) 8 Alright in Time (03:37) 9 The Wrong Girl (04:24) 10 Goodbye My Friend (03:47).

Genre: Pop. Released: 2019. We'll assume you're ok with this, but you can opt-out if you wish. Quality: 320Kbps, Lossless.

Los Angeles, CA, Singer, Writer of Songs, Purveyor of Steez (Pl. .

Los Angeles, CA, Singer, Writer of Songs, Purveyor of Steez (Please). Putting the Palter in Palter Ego.

Hi-Res analogue rips. Detroit born/LA based, prolific singer/songwriter Jesse Palter releases full-length, debut album 'Paper Trail', featuring ten tracks of aggressive, piano-pounding pop/rock in the soulful vein of Carole King, Sarah McLachlan and Sara Bareilles

Hi-Res analogue rips.

Download Paper Trail by Jesse Palter in high-resolution audio at ProStudioMasters. ℗ 2019 Mack Avenue Records II. Paper Trail. AIFF 4. kHz 24-bit. FLAC 4.


Quality-Lossless
Release-2019
Duration-00:40:56
File Size-482.5 MB
Genre-Pop
Cover Size-1500px

Analyzed: Paper Trail / Artist: Jesse Palter
DR Peak RMS Duration Title [codec]
DR5 -0.20 dB -9.39 dB 4:00 01 - Sever the Ties [flac]
DR6 -0.20 dB -7.93 dB 4:30 02 - TMI (Wouldn't You Like to Know) [flac]
DR7 -0.17 dB -10.15 dB 4:58 03 - Paper Trail [flac]
DR7 -0.20 dB -10.21 dB 4:26 04 - Waitin' [flac]
DR6 -0.20 dB -7.94 dB 3:31 05 - Heavy is the Crown [flac]
DR9 -0.99 dB -13.89 dB 3:58 06 - Wildfire [flac]
DR7 -0.10 dB -10.71 dB 3:41 07 - Heart so Cold [flac]
DR5 -0.10 dB -9.31 dB 3:37 08 - Alright in Time [flac]
DR6 -0.10 dB -10.27 dB 4:24 09 - The Wrong Girl [flac]
DR11 -0.96 dB -17.69 dB 3:46 10 - Goodbye My Friend [flac]
Number of files: 10
Official DR value: DR7
Sampling rate: 44100 Hz
Average bitrate: 1565kbs
Bits per sample: 24 bit

Related music:
Erasure - Wild! 88.2-24bit Edition 1989 Remastered download Erasure - Wild! 88.2-24bit Edition 1989 Remastered
Lossless
English
2.1 GB
4.3
/images/5/0/erasure-wild21-882-24bit-edition-1989-remastered.jpg
Erasure - I Say I Say I Say 88.2-24bit 1994 download Erasure - I Say I Say I Say 88.2-24bit 1994
Lossless
English
821.6 MB
4.3
/images/5/8/erasure-i-say-i-say-i-say-882-24bit-1994.jpg
Bad Wolves - N A T I O N 24bit Hi-Res 2019 download Bad Wolves - N A T I O N 24bit Hi-Res 2019
Lossless
English
546.7 MB
4.8
/images/5/2/bad-wolves-n-a-t-i-o-n-24bit-hi-res-2019.jpg
Bishop Briggs - CHAMPION 24bit Hi-Res 2019 download Bishop Briggs - CHAMPION 24bit Hi-Res 2019
Lossless
English
358.0 MB
4.1
/images/5/7/bishop-briggs-champion-24bit-hi-res-2019.jpg
Clare Bowen - Clare Bowen 24bit Hi-Res 2019 download Clare Bowen - Clare Bowen 24bit Hi-Res 2019
Lossless
English
519.7 MB
4.4
/images/5/6/clare-bowen-clare-bowen-24bit-hi-res-2019.jpg
Electric Guest - KIN Flac 2019 download Electric Guest - KIN Flac 2019
Lossless
English
233.2 MB
4.8
/images/5/2/electric-guest-kin-flac-2019.jpg
Dr Deep House - A Solid State 24bit Hi-Res 2019 download Dr Deep House - A Solid State 24bit Hi-Res 2019
Lossless
English
557.6 MB
4.0
/images/5/2/dr-deep-house-a-solid-state-24bit-hi-res-2019.jpg
Alexi Tuomarila Trio - Sphere 24bit Hi-Res 2019 download Alexi Tuomarila Trio - Sphere 24bit Hi-Res 2019
Lossless
English
523.7 MB
4.2
/images/5/6/alexi-tuomarila-trio-sphere-24bit-hi-res-2019.jpg
Nona - Nona Flac 2019 download Nona - Nona Flac 2019
Lossless
English
279.8 MB
4.8
/images/noimage.jpg