Files 42316
» » Eurythmics - We Too Are One Flac 1989
Language: English
Size: 485.2 MB
Votes: 355
Downloaded: 20
Category: Lossless
Format: MP3, FLAC
4.5

File list

Eurythmics - We Too Are One (1989) Flac
  • 01 – We Two Are One.flac (31.3 MB)
  • 02 – The King And Queen Of America.flac (33.8 MB)
  • 03 – (My My) Baby's Gonna Cry.flac (37.7 MB)
  • 04 – Don't Ask Me Why.flac (30.4 MB)
  • 05 – Angel.flac (36.6 MB)
  • 06 – Revival.flac (29.1 MB)
  • 07 – You Hurt Me (And I Hate You).flac (31.2 MB)
  • 08 – Sylvia.flac (27.7 MB)
  • 09 – How Long .flac (35.5 MB)
  • 10 – When The Day Goes Down.flac (38.5 MB)
  • 11 – Precious (taken from 'Revival' 7'').flac (25.0 MB)
  • 12 – See No Evil (from 'The King And King Of America' 7'').flac (25.0 MB)
  • 13 – The King And Queen Of America (12'' Dance Remix).flac (45.6 MB)
  • 14 – Angel (Choir Version - taken from 'Ange' 7'').flac (34.9 MB)
  • 15 – Last Night I Dreamt That Somebody Loved Me (Previously Unissued).flac (22.1 MB)
  • [TGx]Downloaded from torrentgalaxy.org .txt (0.6 KB)
  • cover.jpg (825.4 KB)
  • dr14.txt (1.8 KB)
  • Torrent Downloaded from Glodls.to.txt (0.2 KB)
  • Torrent downloaded from limetorrents.cc.txt (0.1 KB)
  • Torrent Downloaded from worldwidetorrents.to (0.1 KB)

Performer: Eurythmics Album: We Too Are One Label: RCA. Made in DE. Catalog PD 74251 Style: Pop Rock . We Too Are One is the eighth album by the British pop music duo Eurythmics, released in September 1989. It would be the duo's last studio release until 1999's Peace.

Performer: Eurythmics Album: We Too Are One Label: RCA. Catalog PD 74251 Style: Pop Rock, Synth-pop Year: 1989 Format: FLAC (image . ue) Bitrate: lossless Covers: full (600 DPI). Tracklist: - 01. Eurythmics - We Two Are One 02. Eurythmics - The King & Queen Of America 03. Eurythmics - (My, My) Baby's Gonna Cry 04. Eurythmics - Don't Ask Me Why 05.

01 – We Two Are On. lac. 3. 8 MB. 02 – The King And Queen Of America. 03 – (My My) Baby's Gonna Cr. 3 MB. 04 – Don't Ask Me Wh.

We Too Are One - Студийный альбом от Eurythmics. Вышел сентябрь 1989г. The King And Queen Of America. We Two Are One. 04:32. В альбом вошло 21 треков. Продолжительность альбома: 01:37:12.

Главная Каталог SYNTH-POP Eurythmics ‎– We Too Are On. A1. 4:32. A2.

Главная Каталог SYNTH-POP Eurythmics ‎– We Too Are One. Eurythmics ‎– We Too Are One. Задать вопрос. Менеджеры нашей компании с радостью проконсультируют вас по любому вопросу. Eurythmics - We Too Are One. Лэйбл. RCA ‎ PL 74251, RCA ‎ PL74251.


Quality-Lossless
Release-1989
Duration-01:10:41
File Size-508.8 MB
Genre-Pop
Cover Size-1400px

Analyzed: We Too Are One (Remastered + Expanded) / Artist: Eurythmics
DR Peak RMS Duration Title [codec]
DR8 -0.09 dB -9.43 dB 4:34 01 - We Two Are One [flac]
DR7 -0.09 dB -9.09 dB 4:30 02 - The King And Queen Of America [flac]
DR7 -0.09 dB -9.09 dB 4:54 03 - (My My) Baby's Gonna Cry [flac]
DR7 -0.09 dB -8.93 dB 4:21 04 - Don't Ask Me Why [flac]
DR8 -0.10 dB -10.76 dB 5:12 05 - Angel [flac]
DR9 -0.09 dB -11.13 dB 4:05 06 - Revival [flac]
DR8 -0.09 dB -10.41 dB 4:24 07 - You Hurt Me (And I Hate You) [flac]
DR9 -0.10 dB -11.67 dB 4:44 08 - Sylvia [flac]
DR7 -0.09 dB -9.06 dB 4:42 09 - How Long? [flac]
DR8 -0.09 dB -12.27 dB 5:58 10 - When The Day Goes Down [flac]
DR7 -0.09 dB -9.71 dB 3:37 11 - Precious (taken from 'Revival' 7'') [flac]
DR7 -0.10 dB -8.38 dB 4:05 12 - See No Evil (from 'The King And King Of America' 7'') [flac]
DR5 -0.09 dB -7.46 dB 6:12 13 - The King And Queen Of America (12'' Dance Remix) [flac]
DR8 -0.10 dB -12.02 dB 5:48 14 - Angel (Choir Version - taken from 'Ange' 7'') [flac]
DR6 -0.10 dB -10.21 dB 3:25 15 - Last Night I Dreamt That Somebody Loved Me (Previously Unissued) [flac]
Number of files: 15
Official DR value: DR7
Sampling rate: 44100 Hz
Average bitrate: 956kbs
Bits per sample: 16 bit

Related music:
Erasure - Wild! 88.2-24bit Edition 1989 Remastered download Erasure - Wild! 88.2-24bit Edition 1989 Remastered
Lossless
English
2.1 GB
4.3
/images/5/0/erasure-wild21-882-24bit-edition-1989-remastered.jpg
Eurythmics - Savage FLAC - TheMorozko 1987 download Eurythmics - Savage FLAC - TheMorozko 1987
Lossless
English
336.2 MB
4.3
/images/5/6/eurythmics-savage-flac-themorozko-1987.jpg
Eurythmics - We Too Are One ChattChitto RG download Eurythmics - We Too Are One ChattChitto RG
MP3
English
110.7 MB
4.7
/images/5/0/eurythmics-we-too-are-one-chattchitto-rg.jpg
Sophie Zelmani - Precious Burden Flac-was95 1998 download Sophie Zelmani - Precious Burden Flac-was95 1998
Lossless
English
247.1 MB
4.8
/images/5/8/sophie-zelmani-precious-burden-flac-was95-1998.jpg
Sophie Zelmani - A Decade Of Dreams Flac-was95 2005 download Sophie Zelmani - A Decade Of Dreams Flac-was95 2005
Lossless
English
428.4 MB
4.0
/images/5/1/sophie-zelmani-a-decade-of-dreams-flac-was95-2005.jpg
Eurythmics - Greatest Hits - 1991 FLAC download Eurythmics - Greatest Hits - 1991 FLAC
Lossless
English
433.4 MB
4.2
/images/5/8/eurythmics-greatest-hits-1991-flac-.jpg
Savatage - Hall of the Mountain King - download Savatage - Hall of the Mountain King -
Lossless
English
405.2 MB
4.7
/images/5/6/savatage-hall-of-the-mountain-king-.jpg
Kings Of Leon - Aha Shake Heartbreak 192hz-24bit 2004 Remastered 2019 download Kings Of Leon - Aha Shake Heartbreak 192hz-24bit 2004 Remastered 2019
Lossless
English
1.4 GB
4.7
/images/5/6/kings-of-leon-aha-shake-heartbreak-192hz-24bit-2004-remastered-2019.jpg
Simple Minds - Street Fighting Years Flac 1989 download Simple Minds - Street Fighting Years Flac 1989
Lossless
English
387.0 MB
4.2
/images/5/6/simple-minds-street-fighting-years-flac-1989.jpg
Eurythmics - Boxed DJ 2005 320 download Eurythmics - Boxed DJ 2005 320
MP3
English
1.4 GB
4.9
/images/5/0/eurythmics-boxed-dj-2005-320.jpg