Files 42316
» » Dr Deep House - A Solid State 24bit Hi-Res 2019
Language: English
Size: 557.6 MB
Votes: 280
Downloaded: 62
Category: Lossless
Format: MP3, FLAC
4.0

File list

Dr. Deep House - A Solid State (2019) [24bit Hi-Res]
  • 01 - A Solid State.flac (56.8 MB)
  • 02 - Barcelona.flac (33.0 MB)
  • 03 - Calmness.flac (15.9 MB)
  • 04 - Summer Rain.flac (45.8 MB)
  • 05 - Montevideo by Bike.flac (69.2 MB)
  • 06 - Walk the Line.flac (59.7 MB)
  • 07 - Kepler in Fluff.flac (47.7 MB)
  • 08 - Mindfulness.flac (69.8 MB)
  • 09 - Life's a Peach.flac (45.0 MB)
  • 10 - Halfway Through.flac (38.8 MB)
  • 11 - Muzik.flac (75.6 MB)
  • cover.jpg (303.8 KB)
  • dr14.txt (1.3 KB)

Deep House has faced some grave health issues in his family along with the urge to go abroad and leave his home. Oktober 2019 veröffentlicht Sine Music das neue Album "A Solid State" von Dr. Deep House, langjähriges Mitglied der Sine Music Familie.

Deep House has faced some grave health issues in his family along with the urge to go abroad and leave his home. What you actually hear on "A Solid State" is the desire to go ahead, to explore the new, to not always have certainty and to find your way in troubled times. A tasteful mixture of Deep House, Ambient and Electronica creates hypnotic vibes that will make you sink into your daydreams. Das Album wird bei allen bekannten Downloadstores und Streaming Portalen verfügbar sein.

Montevideo by Bike, 06:05. Walk the Line, 05:22. Kepler in Fluff, 04:21. Life's a Peach, 04:05.

Tracks in release A Solid State. Artists, Remixers, Label. 1. A Solid State (Original Mix). Air Castle (Laurent Garnier 2019 Remix). Trackname, Key, BPM, Publish date. 116 bpm, 2A, Eb minor, 2019-10-25, Electronica, 1 11. Dr. Deep House. 2. Barcelona (Original Mix). 113 bpm, 10A, B minor, 2019-10-25, Electronica, 0 11. 3. Calmness (Original Mix). 126 bpm, 2A, Eb minor, 2019-08-19, Melodic House & Techno, 24 1 1. Christian Smith, Laurent Garnier. Save Me (Phonique Remix). 122 bpm, 9B, G major, 2019-09-27, Deep House, 10 1 5. Phonique, Marco Tegui, Starving Yet Full, Night Vision.

info d-State-(2019)- Music. co Dr Deep House - A Solid State (2019) Music. com Dr. Deep House: A Solid State (2019) Music. eu Dr. Deep House - A Solid State (2019) audio. pokemon pikachu 2s, india's most wanted 0s, title: Kristen Ashley Valentinos 0s, DESI 1s, Street Fighter 1994 0s, smadav crack+setup 1s, Yubisaki kara Honki no wa Sho 0s, title: Brian Augustyn X-O Manowar 3s, integrity 2019 0s, Gia Milana 1s.

24bit Hi-Res Flac Music. Music archive in lossless formats, from Trance to Classical to Rock. Contact 24bit Hi-Res Flac Music on Messenger. Here at you can free download music Contact 24bit Hi-Res Flac Music on Messenger. Movie & Music Store · Song · Arts & Entertainment. See actions taken by the people who manage and post content. Page created - December 2, 2017.

Deep House, Tribal House. Dj Maxim Ice - Ligth Rhythm (House/Deep House mix 2019). 24 часа 3 дня 1 неделя 2 недели 1 месяц 2 месяца 3 месяца 6 месяцев 9 месяцев 1 год 2 года. June Mix for Radio Marbella (2019). 10 59:17 5 PR 0,1 ▲. 320 121. House, Deep House. September Mix for Radio Marbella (2019). 47 56:12 30 PR 0,8 ▲. 320 12. 21. за. весь январь февраль март апрель май июнь июль август сентябрь октябрь ноябрь декабрь.

Container: flac (tracks) Quality: Hi-Fi, lossless audio Sample Rate: 44100 kHz, 24 bit, Stereo Source: Digital download Album Artist: Dr. Deep House Album Name: A Solid State Genre: Electronic Release Date: 2019 www publisher.


Quality-Lossless
Release-2019
Duration-00:53:08
File Size-584 MB
Genre-Electronic
Cover Size-1400px
Analyzed: A Solid State / Artist: Dr. Deep House
DR Peak RMS Duration Title [codec]
DR5 -1.42 dB -7.69 dB 5:50 01 - A Solid State [flac]
DR6 -1.65 dB -8.60 dB 3:10 02 - Barcelona [flac]
DR11 -1.16 dB -16.83 dB 1:39 03 - Calmness [flac]
DR5 -1.00 dB -8.16 dB 3:46 04 - Summer Rain [flac]
DR5 -1.00 dB -7.52 dB 6:04 05 - Montevideo by Bike [flac]
DR5 -1.00 dB -8.33 dB 5:21 06 - Walk the Line [flac]
DR11 -1.02 dB -14.66 dB 4:20 07 - Kepler in Fluff [flac]
DR7 -1.00 dB -9.89 dB 6:58 08 - Mindfulness [flac]
DR7 -1.00 dB -9.66 dB 4:04 09 - Life's a Peach [flac]
DR7 -1.00 dB -10.70 dB 3:46 10 - Halfway Through [flac]
DR8 -1.00 dB -10.77 dB 7:03 11 - Muzik [flac]
Number of files: 11
Official DR value: DR7
Sampling rate: 44100 Hz
Average bitrate: 1442kbs
Bits per sample: 24 bit

Related music:
Erasure - Wild! 88.2-24bit Edition 1989 Remastered download Erasure - Wild! 88.2-24bit Edition 1989 Remastered
Lossless
English
2.1 GB
4.3
/images/5/0/erasure-wild21-882-24bit-edition-1989-remastered.jpg
Vanessa Wagner - Inland 24bit Hi-Res 2019 download Vanessa Wagner - Inland 24bit Hi-Res 2019
Lossless
English
1,010.1 MB
4.2
/images/5/4/vanessa-wagner-inland-24bit-hi-res-2019.jpg
Erasure - I Say I Say I Say 88.2-24bit 1994 download Erasure - I Say I Say I Say 88.2-24bit 1994
Lossless
English
821.6 MB
4.3
/images/5/8/erasure-i-say-i-say-i-say-882-24bit-1994.jpg
Bad Wolves - N A T I O N 24bit Hi-Res 2019 download Bad Wolves - N A T I O N 24bit Hi-Res 2019
Lossless
English
546.7 MB
4.8
/images/5/2/bad-wolves-n-a-t-i-o-n-24bit-hi-res-2019.jpg
Maddalena Del Gobbo - Maddalena And The Prince 24bit Hi-Res 2019 download Maddalena Del Gobbo - Maddalena And The Prince 24bit Hi-Res 2019
Lossless
English
1.4 GB
4.0
/images/5/5/maddalena-del-gobbo-maddalena-and-the-prince-24bit-hi-res-2019.jpg
Jamie Cullum - Taller Flac 2019 download Jamie Cullum - Taller Flac 2019
Lossless
English
214.0 MB
4.8
/images/5/7/jamie-cullum-taller-flac-2019.jpg
Ozzy Osbourne - Diary Of A Madman Flac 1981 download Ozzy Osbourne - Diary Of A Madman Flac 1981
Lossless
English
304.4 MB
4.1
/images/5/2/ozzy-osbourne-diary-of-a-madman-flac-1981.jpg
Alexi Tuomarila Trio - Sphere 24bit Hi-Res 2019 download Alexi Tuomarila Trio - Sphere 24bit Hi-Res 2019
Lossless
English
523.7 MB
4.2
/images/5/6/alexi-tuomarila-trio-sphere-24bit-hi-res-2019.jpg
Ozzy Osbourne - No Rest For The Wicked Flac 1988 download Ozzy Osbourne - No Rest For The Wicked Flac 1988
Lossless
English
308.6 MB
4.2
/images/5/9/ozzy-osbourne-no-rest-for-the-wicked-flac-1988.jpg
Pink Floyd - The Dark Side Of The Moon 96hz-24bit 1973 1994 download Pink Floyd - The Dark Side Of The Moon 96hz-24bit 1973 1994
Lossless
English
800.8 MB
4.1
/images/5/3/pink-floyd-the-dark-side-of-the-moon-96hz-24bit-1973-1994.jpg