Files 42316
» » a-ha - Minor Earth, Major Sky Deluxe Edition -was95 24bit Hi-Res 2000 Remastered 2019
Language: English
Size: 1.8 GB
Votes: 376
Downloaded: 15
Category: Lossless
Format: MP3, FLAC
4.9

File list

a-ha - Minor Earth, Major Sky Deluxe Edition (2000) (Remastered 2019) [24bit Hi-Res]-was95
  • 01. Minor Earth Major Sky (2019 Remaster).flac (63.4 MB)
  • 02. Little Black Heart (2019 Remaster).flac (53.3 MB)
  • 03. Velvet (2019 Remaster).flac (51.2 MB)
  • 04. Summer Moved On (2019 Remaster).flac (54.5 MB)
  • 05. The Sun Never Shone That Day (2019 Remaster).flac (55.8 MB)
  • 06. To Let You Win (2019 Remaster).flac (49.3 MB)
  • 07. The Company Man (2019 Remaster).flac (40.1 MB)
  • 08. Thought That It Was You (2019 Remaster).flac (45.5 MB)
  • 09. I Wish I Cared (2019 Remaster).flac (50.7 MB)
  • 10. Barely Hanging On (2019 Remaster).flac (46.8 MB)
  • 11. You'll Never Get Over Me (2019 Remaster).flac (68.5 MB)
  • 12. I Won't Forget Her (2019 Remaster).flac (55.7 MB)
  • 13. Mary Ellen Makes the Moment Count (2019 Remaster).flac (58.5 MB)
  • 14. Summer Moved On (Remix).flac (70.2 MB)
  • 15. Velvet (Alabaster Mix).flac (60.5 MB)
  • 16. The Sun Never Shone That Day (Radio Edit).flac (42.4 MB)
  • 17. Minor Earth Major Sky (Milenia Nova Remix).flac (53.4 MB)
  • 18. Minor Earth Major Sky (Early Version).flac (69.0 MB)
  • 19. Little Black Heart (Alternate Mix).flac (52.9 MB)
  • 20. Velvet (Early Version).flac (62.7 MB)
  • 21. Summer Moved On (Early Version).flac (53.5 MB)
  • 22. The Sun Never Shone That Day (Early Version).flac (52.5 MB)
  • 23. To Let You Win (Early Mix).flac (52.9 MB)
  • 24. We Will Never Speak Again (Demo).flac (48.2 MB)
  • 25. The Company Man (Early Version).flac (51.0 MB)
  • 26. Life's Not Fair (Early Version of -I Wish I Cared-).flac (39.2 MB)
  • 27. Barely Hanging On (Early Version).flac (46.7 MB)
  • 28. I Won't Forget Her (Early Version).flac (56.3 MB)
  • 29. Manhattan Skyline (Live Oslo 2001).flac (69.6 MB)
  • 30. Thought That It Was You (Live Oslo 2001).flac (42.8 MB)
  • 31. You'll Never Get Over Me (Live Oslo 2001).flac (73.7 MB)
  • 32. Mary Ellen Makes the Moment Count (Live Oslo 2001).flac (70.0 MB)
  • 33. Summer Moved On (Demo).flac (38.4 MB)
  • cover.jpg (361.3 KB)
  • dr14.txt (3.4 KB)

Minor Earth Major Sky (Milenia Nova Remix) (4:29) 18.

ГОД, ДАТА ВЫХОДА: 2000/September 27, 2019. Minor Earth Major Sky (Milenia Nova Remix) (4:29) 18.

The deluxe version of Minor Earth Major Sky is more than just another reissue of a hit album, with demos, early versions and alternate mixes. Disc two amounts to an entirely new take on the album. Early versions of the title track Minor Earth Major Sky, Velvet, Summer Moved On and the enormous powerful version of The Sun Never Shone That Day as well as other takes that did not make it on the final cut reveal the sparkles of songwriting and the process of an idea becoming a hit. Four live-performances in Oslo taken from their 2001 tour prove the grandeur of an a-ha live performance.

Was You (2019 Remaster) (3:50) 9. I Wish I Cared (2019 Remaster) (4:21) 10. Barely Hanging On (2019 Remaster) (3:56) 11. You'll Never Get Over Me (2019 Remaster) (5:39) 12. I Won't Forget Her (2019 Remaster) (4:44) 13. Mary Ellen Makes the Moment Count (2019 Remaster) (4:57) 14.

CD1 1. Minor Earth Major Sky (2019 Remaster) (5:24) 2. Little Black Heart (2019 Remaster) . Minor Earth Major Sky (Milenia Nova Remix) (4:29). Little Black Heart (2019 Remaster) (4:36) 3. Velvet (2019 Remaster) (4:19) 4. Summer Moved On (2019 Remaster) (4:37) 5. The Sun Never Shone That Day (2019 Remaster) (4:39) 6. To Let You Win (2019 Remaster) (4:23) 7. The Company Man (2019 Remaster) (3:15) 8. Thought. Manhattan Skyline (Live Oslo 2001) (5:52) 13. Thought That It Was You (Live Oslo 2001) (3:45) 14. You'll Never Get Over Me (Live Oslo 2001) (6:02) 15.

a-ha - Single Remixes - 2000 (EP Japan). a-ha - Hunting High & Low (2015). a-ha - Lifelines - 2002 (CD Japan). a-ha - Analogue - 2005 (CD Japan). a-ha - 25 - the very best of a-ha - 2010 (2CD Japan).

Minor Earth Major Sky (2019 Remaster). 17. Minor Earth Major Sky (Milenia Nova Remix). 6. MB. 02. 5. 6 MB. 03. Velvet (2019 Remaster). 04. Summer Moved On (2019 Remaster). 4 MB. 05. The Sun Never Shone That Day (2019 Remaster). 5 MB. 18. Minor Earth Major Sky (Early Version). 19. Little Black Heart (Alternate Mix).

Minor Earth Major Sky virtually exists in its entirety on the second disc in demo form and the CD is completed with a. .Both deluxe sets feature brand new sleeve notes by Kieron Tyler.

Minor Earth Major Sky virtually exists in its entirety on the second disc in demo form and the CD is completed with a selection of live tracks. Minor Earth Major Sky’ and ‘Lifelines’ are both issued on vinyl for the first time as part of this reissue campaign. They are both 2LP 180g black vinyl pressings on gatefold sleeves and feature the remastered album only, without the bonus material. Disc two amounts to an entirely new take on the album


Quality-Lossless
Release- (Remastered 2019)
Duration-02:33:36
File Size-622 MB
Genre-Pop
Cover Size-1400px
Analyzed: Minor Earth, Major Sky Deluxe Edition (Remastered) / Artist: a-ha
DR Peak RMS Duration Title [codec]
DR6 -0.67 dB -9.11 dB 5:23 01 - Minor Earth Major Sky (2019 Remaster) [flac]
DR6 -0.68 dB -8.61 dB 4:36 02 - Little Black Heart (2019 Remaster) [flac]
DR8 -0.10 dB -10.53 dB 4:19 03 - Velvet (2019 Remaster) [flac]
DR6 -0.41 dB -8.89 dB 4:37 04 - Summer Moved On (2019 Remaster) [flac]
DR7 -0.47 dB -9.75 dB 4:37 05 - The Sun Never Shone That Day (2019 Remaster) [flac]
DR8 -0.95 dB -11.79 dB 4:23 06 - To Let You Win (2019 Remaster) [flac]
DR8 -0.42 dB -9.86 dB 3:14 07 - The Company Man (2019 Remaster) [flac]
DR7 -0.48 dB -9.93 dB 3:49 08 - Thought That It Was You (2019 Remaster) [flac]
DR6 -0.82 dB -8.29 dB 4:20 09 - I Wish I Cared (2019 Remaster) [flac]
DR7 -0.21 dB -8.73 dB 3:54 10 - Barely Hanging On (2019 Remaster) [flac]
DR7 -0.10 dB -8.48 dB 5:37 11 - You'll Never Get Over Me (2019 Remaster) [flac]
DR7 -0.61 dB -9.29 dB 4:44 12 - I Won't Forget Her (2019 Remaster) [flac]
DR7 -0.45 dB -9.20 dB 4:57 13 - Mary Ellen Makes the Moment Count (2019 Remaster) [flac]
DR7 -0.67 dB -8.85 dB 6:00 14 - Summer Moved On (Remix) [flac]
DR6 -1.35 dB -9.48 dB 5:19 15 - Velvet (Alabaster Mix) [flac]
DR7 -1.04 dB -9.73 dB 3:31 16 - The Sun Never Shone That Day (Radio Edit) [flac]
DR5 -0.60 dB -10.32 dB 4:29 17 - Minor Earth Major Sky (Milenia Nova Remix) [flac]
DR6 -0.79 dB -9.25 dB 5:48 18 - Minor Earth Major Sky (Early Version) [flac]
DR7 -0.13 dB -9.37 dB 4:34 19 - Little Black Heart (Alternate Mix) [flac]
DR7 -0.12 dB -9.63 dB 5:17 20 - Velvet (Early Version) [flac]
DR7 -0.12 dB -8.83 dB 4:37 21 - Summer Moved On (Early Version) [flac]
DR8 -0.08 dB -11.07 dB 4:23 22 - The Sun Never Shone That Day (Early Version) [flac]
DR8 -0.36 dB -11.49 dB 4:38 23 - To Let You Win (Early Mix) [flac]
DR7 -0.13 dB -10.75 dB 4:19 24 - We Will Never Speak Again (Demo) [flac]
DR7 -0.19 dB -9.40 dB 4:29 25 - The Company Man (Early Version) [flac]
DR7 -0.30 dB -12.08 dB 3:31 26 - Life's Not Fair (Early Version of "I Wish I Cared") [flac]
DR7 -1.21 dB -11.35 dB 3:52 27 - Barely Hanging On (Early Version) [flac]
DR6 -1.28 dB -9.32 dB 4:51 28 - I Won't Forget Her (Early Version) [flac]
DR9 -0.24 dB -12.65 dB 5:50 29 - Manhattan Skyline (Live Oslo 2001) [flac]
DR10 -1.39 dB -13.88 dB 3:45 30 - Thought That It Was You (Live Oslo 2001) [flac]
DR10 -0.52 dB -12.60 dB 6:01 31 - You'll Never Get Over Me (Live Oslo 2001) [flac]
DR8 -0.51 dB -12.01 dB 6:05 32 - Mary Ellen Makes the Moment Count (Live Oslo 2001) [flac]
DR7 -0.55 dB -10.64 dB 3:33 33 - Summer Moved On (Demo) [flac]
Number of files: 33
Official DR value: DR7
Sampling rate: 44100 Hz
Average bitrate: 1633kbs
Bits per sample: 24 bit

Related music:
Chris Rea - Shamrock Diaries Mp3 2019 Remaster Edition 320kbps download Chris Rea - Shamrock Diaries Mp3 2019 Remaster Edition 320kbps
MP3
English
244.5 MB
4.5
/images/5/6/chris-rea-shamrock-diaries-mp3-2019-remaster-edition-320kbps.jpg
The Dave Clark Five - Coast To Coast Remastered DJ 2019 320 download The Dave Clark Five - Coast To Coast Remastered DJ 2019 320
MP3
English
51.5 MB
4.9
/images/5/3/the-dave-clark-five-coast-to-coast-remastered-dj-2019-320.jpg
Megadeth - The World Needs A Hero Remastered eNJoY-iT 320Kbps 2019 download Megadeth - The World Needs A Hero Remastered eNJoY-iT 320Kbps 2019
MP3
English
139.7 MB
4.6
/images/5/5/megadeth-the-world-needs-a-hero-remastered-enjoy-it-320kbps-2019.jpg
Megadeth - The World Needs A Hero Remastered eNJoY-iT 320Kbps 2019 download Megadeth - The World Needs A Hero Remastered eNJoY-iT 320Kbps 2019
MP3
English
139.7 MB
4.1
/images/5/9/megadeth-the-world-needs-a-hero-remastered-enjoy-it-320kbps-2019.jpg
Chris Rea - The Road To Hell FLAC DJ Edition 2019 download Chris Rea - The Road To Hell FLAC DJ Edition 2019
Lossless
English
1.1 GB
4.6
/images/5/5/chris-rea-the-road-to-hell-flac-dj-edition-2019.jpg
Whitesnake – Slip Of The Tongue 320 KBPS 30th Anniversary Edition 2019 download Whitesnake – Slip Of The Tongue 320 KBPS 30th Anniversary Edition 2019
Album
English
182.8 MB
4.7
/images/5/5/whitesnake-e28093-slip-of-the-tongue-320-kbps-30th-anniversary-edition-2019-.jpg
a-ha - Minor Earth, Major Sky Edition 2000/2019 download a-ha - Minor Earth, Major Sky Edition 2000/2019
MP3
English
353.4 MB
4.2
/images/5/8/a-ha-minor-earth2c-major-sky-edition-20002f2019.jpg