Files 42316
» » Pony Bradshaw - Sudden Opera 24 Bit Hi-Res 2019
Language: English
Size: 940.0 MB
Votes: 501
Downloaded: 33
Category: Lossless
Format: MP3, FLAC
4.9

File list

Pony Bradshaw - Sudden Opera (2019) [24 Bit Hi-Res]
  • 01 - Van Gogh.flac (65.3 MB)
  • 02 - Jehovah.flac (73.8 MB)
  • 03 - Shame.flac (68.2 MB)
  • 04 - Ain't No Eden.flac (74.0 MB)
  • 05 - 10x10.flac (79.4 MB)
  • 06 - Charlatan.flac (66.1 MB)
  • 07 - Didn't It Rain.flac (81.5 MB)
  • 08 - Loretta.flac (76.0 MB)
  • 09 - Bad Teeth.flac (80.8 MB)
  • 10 - Sippi Sand.flac (92.3 MB)
  • 11 - Gaslight Heart.flac (82.4 MB)
  • 12 - Josephine.flac (99.8 MB)
  • [TGx]Downloaded from torrentgalaxy.org .txt (0.6 KB)
  • cover.jpg (522.2 KB)
  • dr14.txt (1.4 KB)
  • Torrent Downloaded from Glodls.to.txt (0.2 KB)
  • Torrent downloaded from limetorrents.cc.txt (0.1 KB)
  • Torrent Downloaded from worldwidetorrents.to (0.1 KB)

DSD. SACD Iso. Lossless Albums FLAC 16 bit Pony Bradshaw - Sudden Opera (2019) FLAC. Pony Bradshaw - Sudden Opera (2019) FLAC. Genres: FLAC 16 bit, Pop 20-06-2019, 23:34 85 soundmaster. All music Pony Bradshaw.

Container: FLAC (tracks) Quality: Hi-Fi, lossless audio Sample Rate: 96000 kHz, 24 bit, Hi-Res Stereo Source: Digital download Album Artist: Pony Bradshaw Album Name: Sudden Opera Genre: Pop Release Date: 2019.

Sampling rate: 96000 Hz Average bitrate: 3045kbs Bits per sample: 24 bit. Tracker name.

Pony Bradshaw, Chatsworth, Georgia. Musical compositions. She’s out and released. My dear Sudden Opera. The irony stings like a harpoon to the kidney. It’s been more gradual than sudden. A slow and steady saturnalia. History will prove that. October 15 at 6:25 AM ·. Tonight we’re in Tupelo, MS. TUE, OCT 15. Pony Bradshaw w/ special guest Kenny Owens.

Sudden Opera Pony Bradshaw. Listen on Apple Music. More By Pony Bradshaw. See All. 10x10 - Single.

Download Sudden Opera by Pony Bradshaw in high-resolution audio at. ℗ 2019 Rounder Records, a division of Concord Music Group.

Download Sudden Opera by Pony Bradshaw in high-resolution audio at ProStudioMasters.

Genre: Pop. Released: 2019. We'll assume you're ok with this, but you can opt-out if you wish. Quality: 320Kbps, Lossless. Pony Bradshaw – Sudden Opera (2019). EP. Top Songs & Albums.

ch -Opera-(2019)- Music. eu Pony Bradshaw - Sudden Opera (2019) audio. gearvr 1s, Czech street 117 1s, sonic the hedgehog 2019 1s, mr poppers penguins 2011 dvdrip 0s, Дядюн 2s, padmavat 1s, native instruments 3s, Tom Clancys Jack Ryan s02e07 1080p 1s, prepar3d . 2s, public 0s.


Quality-Lossless
Release-2019
Duration-00:43:21
File Size-985.7 MB
Genre-Pop
Cover Size-1500px

Analyzed: Sudden Opera / Artist: Pony Bradshaw
DR Peak RMS Duration Title [codec]
DR6 -0.20 dB -7.75 dB 2:52 01 - Van Gogh [flac]
DR6 -0.00 dB -8.37 dB 3:06 02 - Jehovah [flac]
DR5 -0.24 dB -7.52 dB 2:54 03 - Shame [flac]
DR6 -0.26 dB -8.96 dB 3:29 04 - Ain't No Eden [flac]
DR7 -0.19 dB -10.63 dB 3:39 05 - 10x10 [flac]
DR6 -0.21 dB -8.40 dB 2:56 06 - Charlatan [flac]
DR6 -0.24 dB -7.28 dB 3:28 07 - Didn't It Rain [flac]
DR8 -0.38 dB -12.38 dB 3:58 08 - Loretta [flac]
DR7 -0.20 dB -9.76 dB 3:56 09 - Bad Teeth [flac]
DR6 -0.00 dB -9.06 dB 4:09 10 - Sippi Sand [flac]
DR6 -0.27 dB -9.20 dB 3:54 11 - Gaslight Heart [flac]
DR6 -0.19 dB -9.25 dB 4:56 12 - Josephine [flac]
Number of files: 12
Official DR value: DR6
Sampling rate: 96000 Hz
Average bitrate: 3045kbs
Bits per sample: 24 bit

Related music:
Bad Wolves - N A T I O N 24bit Hi-Res 2019 download Bad Wolves - N A T I O N 24bit Hi-Res 2019
Lossless
English
546.7 MB
4.8
/images/5/2/bad-wolves-n-a-t-i-o-n-24bit-hi-res-2019.jpg
Bishop Briggs - CHAMPION 24bit Hi-Res 2019 download Bishop Briggs - CHAMPION 24bit Hi-Res 2019
Lossless
English
358.0 MB
4.1
/images/5/7/bishop-briggs-champion-24bit-hi-res-2019.jpg
RuthAnne - Matters Of The Heart Flac 2019 download RuthAnne - Matters Of The Heart Flac 2019
Lossless
English
297.1 MB
4.6
/images/5/8/ruthanne-matters-of-the-heart-flac-2019.jpg
Dominic Sen - Visitor Flac 2019 download Dominic Sen - Visitor Flac 2019
Lossless
English
265.2 MB
4.0
/images/5/5/dominic-sen-visitor-flac-2019.jpg
Clare Bowen - Clare Bowen 24bit Hi-Res 2019 download Clare Bowen - Clare Bowen 24bit Hi-Res 2019
Lossless
English
519.7 MB
4.4
/images/5/6/clare-bowen-clare-bowen-24bit-hi-res-2019.jpg
Electric Guest - KIN Flac 2019 download Electric Guest - KIN Flac 2019
Lossless
English
233.2 MB
4.8
/images/5/2/electric-guest-kin-flac-2019.jpg
Miss Platnum - The Opera Flac 2019 download Miss Platnum - The Opera Flac 2019
Lossless
English
230.1 MB
4.9
/images/5/8/miss-platnum-the-opera-flac-2019.jpg
Nona - Nona Flac 2019 download Nona - Nona Flac 2019
Lossless
English
279.8 MB
4.8
/images/noimage.jpg