Files 42316
» » Keyshia Cole - Just Like You Flac 2007
Language: English
Size: 469.8 MB
Votes: 904
Downloaded: 105
Category: Lossless
Format: MP3, FLAC
4.7

File list

Keyshia Cole - Just Like You (2007) Flac
  • 01 - Let It Go.flac (27.0 MB)
  • 02 - Last Night.flac (28.2 MB)
  • 03 - (When You Gonna) Give It Up To Me.flac (30.4 MB)
  • 04 - Love.flac (28.9 MB)
  • 05 - Fallin' Out.flac (32.5 MB)
  • 06 - Was It Worth It.flac (26.1 MB)
  • 07 - I Changed My Mind.flac (24.4 MB)
  • 08 - I Remember.flac (30.5 MB)
  • 09 - I Should Have Cheated.flac (37.6 MB)
  • 10 - Heaven Sent.flac (29.2 MB)
  • 11 - You've Changed.flac (31.5 MB)
  • 12 - Situations.flac (35.4 MB)
  • 13 - Shoulda Let You Go.flac (26.7 MB)
  • 14 - Give Me More.flac (29.1 MB)
  • 15 - Let It Go.flac (21.6 MB)
  • 16 - Love, I Thought You Had My Back.flac (30.5 MB)
  • [TGx]Downloaded from torrentgalaxy.org .txt (0.6 KB)
  • cover.jpg (170.6 KB)
  • dr14.txt (1.8 KB)
  • Torrent Downloaded from Glodls.to.txt (0.2 KB)
  • Torrent downloaded from limetorrents.cc.txt (0.1 KB)
  • Torrent Downloaded from worldwidetorrents.to (0.1 KB)

Keyshia Cole - Was It Worth It? (3:36) 11. Keyshia Cole - Just Like You (4:06) 1. nl/download/Keyshia Cole - Just Like You (2007) Lossless.

Keyshia Cole - Was It Worth It? (3:36) 11. Keyshia Cole - Just Like You (4:06) 12. Keyshia Cole - Losing You (featuring Anthony Hamilton) (3:49) 13. Keyshia Cole - Last Night (featuring Diddy) (4:16) 14. Keyshia Cole - Work It Out (4:04) 1.

All Music Audio books Sound clips FLAC Other Movies Movies DVDR Music videos Movie clips TV shows Handheld HD - Movies HD - TV shows 3D Other . Details for this torrent. Keyshia Cole - Just Like You (2007) - R&B.

All Music Audio books Sound clips FLAC Other Movies Movies DVDR Music videos Movie clips TV shows Handheld HD - Movies HD - TV shows 3D Other Windows Mac UNIX Handheld IOS (iPad/iPhone) Android Other OS PC Mac PSx XBOX360 Wii Handheld IOS (iPad/iPhone) Android Other Movies Movies DVDR Pictures Games HD - Movies Movie clips Other E-books Comics Pictures Covers.

Keyshia Cole - Point Of No Return (2014) Flac. Keyshia Cole - A Different Me (2008) Flac.

Just Like You is the second studio album by American R&B singer Keyshia Cole. The album was released on September 25, 2007 through Geffen Records. It was nominated for Best Contemporary R&B Album at the 50th Annual Grammy Awards that was held February 2008, but lost to Ne-Yo's Because of You. As of December 2007, the album has been certified platinum in sales by the Recording Industry Association of America and remains Cole's highest-selling album to date with . million copies sold.

Keyshia Cole: все альбомы, включая 11:11 Reset, Don't Waste My Time - Single, Point Of No Return и другие. 2007 сингл Digital Single; feat. Just Me. Keith Sweat.

Keyshia Cole: American singer, songwriter, actress, producer, and television personality. She was born in Oakland, California. Her career began when she met MC Hammer at the age of 12, and later met rapper Tupac Shakur. At the age of 15, she moved to Los Angeles and was later introduced to A&M Records. She released her debut album, The Way It Is, which spawned five singles: "Never", "I Changed My Mind", " To Be Over", "I Should Have Cheated", and "Love". It was certified gold within 17 weeks, and then platinum just eight weeks later

Home Hip Hop/R&B Geffen Keyshia Cole . Just Like You (UK Version).

Home Hip Hop/R&B Geffen Keyshia Cole . Cat: 006530 Released: 1 January, 2007 Genre: Hip Hop/R&B. Formats: 320KB/S MP3. WAV. FLAC.

Just Like You - Студийный альбом от Keyshia Cole. Вышел 25 сентября 2007г. Keyshia Cole - Next Time (Won't Give My Heart Away). Keyshia Cole - Got To Get My Heart Back (Slowed). В альбом вошло 38 треков. Продолжительность альбома: 02:29:30. Keyshia Cole - You Complete Me (Official Video). Diddy - "Last Night" (feat.

Keyshia Cole-Just Like You-2007-CMS Keyshia Cole – 11:11 Reset (2017) Lossless FLAC, Tracks 241,9 MB Tracklist: 01. Cole World (Intro) 01:24 02.

Keyshia Cole-Just Like You-2007-CMS. label: Geffen date ripped: 0. 4. 2007 date released: 0. 0. Calling All Hearts, Keyshia Cole's 4th studio album, follows her previous 3 platinum selling albums: The Way It Is - June 2005, Just Like You - September 2007, and A Different Me - December 2008. Her new album features guest performances by Nicki Minaj, Tank, Faith Evans, Timbaland, and Dr. Yvonne Cole. Keyshia Cole – 11:11 Reset (2017) Lossless FLAC, Tracks 241,9 MB Tracklist: 01.


Quality-Lossless
Release-2008
Duration-01:05:29
File Size-492.6 MB
Genre-R&B
Cover Size-1200px

Analyzed: Just Like You / Artist: Keyshia Cole
DR Peak RMS Duration Title [codec]
DR6 -0.05 dB -9.34 dB 3:58 01 - Let It Go (feat. Missy Elliott, Lil' Kim) [flac]
DR6 -1.70 dB -9.01 dB 4:15 02 - Last Night (feat. Diddy) [flac]
DR5 -0.01 dB -6.26 dB 4:03 03 - (When You Gonna) Give It Up To Me (feat. Sean Paul) [flac]
DR8 -0.10 dB -10.26 dB 4:13 04 - Love [flac]
DR6 -0.00 dB -8.57 dB 4:26 05 - Fallin' Out [flac]
DR6 -0.00 dB -8.24 dB 3:35 06 - Was It Worth It? [flac]
DR6 -0.10 dB -8.39 dB 3:18 07 - I Changed My Mind [flac]
DR6 -0.00 dB -8.76 dB 4:20 08 - I Remember [flac]
DR7 -0.23 dB -10.00 dB 5:28 09 - I Should Have Cheated [flac]
DR6 -0.10 dB -8.63 dB 3:50 10 - Heaven Sent [flac]
DR6 -0.10 dB -8.63 dB 4:16 11 - You've Changed [flac]
DR6 -0.30 dB -8.81 dB 4:45 12 - Situations (feat. Chink Santana) [flac]
DR7 -0.00 dB -8.83 dB 3:39 13 - Shoulda Let You Go (feat. Amina) [flac]
DR5 -1.56 dB -8.84 dB 3:53 14 - Give Me More [flac]
DR7 -0.00 dB -8.89 dB 3:14 15 - Let It Go (feat. Piper) [flac]
DR7 -0.00 dB -8.97 dB 4:09 16 - Love, I Thought You Had My Back [flac]
Number of files: 16
Official DR value: DR6
Sampling rate: 44100 Hz
Average bitrate: 1000kbs
Bits per sample: 16 bit

Related music:
RuthAnne - Matters Of The Heart Flac 2019 download RuthAnne - Matters Of The Heart Flac 2019
Lossless
English
297.1 MB
4.6
/images/5/8/ruthanne-matters-of-the-heart-flac-2019.jpg
Dominic Sen - Visitor Flac 2019 download Dominic Sen - Visitor Flac 2019
Lossless
English
265.2 MB
4.0
/images/5/5/dominic-sen-visitor-flac-2019.jpg
Sabrina Carpenter - Singular Act II 2019 download Sabrina Carpenter - Singular Act II 2019
Lossless
English
199.0 MB
4.9
/images/5/2/sabrina-carpenter-singular-act-ii-2019.jpg
Keyshia Cole - Point Of No Return Flac Deluxe Edition 2014 download Keyshia Cole - Point Of No Return Flac Deluxe Edition 2014
Lossless
English
340.4 MB
4.4
/images/5/9/keyshia-cole-point-of-no-return-flac-deluxe-edition-2014.jpg
Electric Guest - KIN Flac 2019 download Electric Guest - KIN Flac 2019
Lossless
English
233.2 MB
4.8
/images/5/2/electric-guest-kin-flac-2019.jpg
DJ Snake - Carte Blanche Flac 2019 download DJ Snake - Carte Blanche Flac 2019
Lossless
English
430.4 MB
4.9
/images/5/4/dj-snake-carte-blanche-flac-2019.jpg
Gabrielle - Gabrielle 1996 CD FLAC Lossless Log download Gabrielle - Gabrielle 1996 CD FLAC Lossless Log
Lossless
English
393.9 MB
4.6
/images/5/6/gabrielle-gabrielle-1996-cd-flac-lossless-log.jpg
Edward Maya - The Stereo Love Show Flac 2014 download Edward Maya - The Stereo Love Show Flac 2014
Lossless
English
399.8 MB
4.6
/images/5/2/edward-maya-the-stereo-love-show-flac-2014.jpg
January Thompson - Whelmed Flac 2017 download January Thompson - Whelmed Flac 2017
Lossless
English
323.8 MB
4.9
/images/5/9/january-thompson-whelmed-flac-2017.jpg
Nona - Nona Flac 2019 download Nona - Nona Flac 2019
Lossless
English
279.8 MB
4.8
/images/noimage.jpg