Files 42316
» » Demons & Wizards - Touched By The King Test&Copy Eac Flac Cue Lossless Crew
Language: English
Size: 491.7 MB
Votes: 009
Downloaded: 27
Category: Lossless
Format: MP3, FLAC
4.4

File list

Artwork
  • Back.jpg (707.4 KB)
  • Booklet-2.jpg (1.3 MB)
  • Booklet-3.jpg (1.3 MB)
  • Booklet-4.jpg (1.1 MB)
  • Booklet-5.jpg (1.6 MB)
  • Booklet-6.jpg (1.1 MB)
  • Booklet-7.jpg (1.1 MB)
  • Booklet-8.jpg (1.0 MB)
  • Booklet-9.jpg (1.0 MB)
  • Booklet.jpg (1.3 MB)
  • Cd 1.jpg (540.3 KB)
  • Cd 2.jpg (479.3 KB)
  • Digipack Inlay.jpg (2.0 MB)
  • Digipack.jpg (3.6 MB)
  • Front.jpg (676.7 KB)
Cd 1
  • 01 - King.flac (43.2 MB)
  • 02 - Beneath These Waves.flac (36.8 MB)
  • 03 - Terror Train.flac (37.1 MB)
  • 04 - Seize The Day.flac (40.2 MB)
  • 05 - The Gunslinger.flac (35.3 MB)
  • 06 - Love's Tragedy Asunder.flac (38.0 MB)
  • 07 - Wicked Witch.flac (21.2 MB)
  • 08 - Dorian.flac (44.8 MB)
  • 09 - Down Where I Am.flac (33.6 MB)
  • 10 - Immigrant Song.flac (18.3 MB)
  • Cover.jpg (118.2 KB)
  • Demons & Wizards - Touched By The King - Cd 1.log (4.9 KB)
  • Info.nfo (2.7 KB)
  • Touched By The King - Cd .Flac.cue (1.9 KB)
  • Touched By The King - Cd 1.cue (1.9 KB)
  • Touched By The King - Cd 1.m3u (0.3 KB)
Cd 2
  • 01 - Lunar Lament.flac (31.5 MB)
  • 02 - Wicked Witch (Slow Version).flac (22.3 MB)
  • 03 - Spatial Architects.flac (42.2 MB)
  • 04 - Beneath These Waves (Edit).flac (28.0 MB)
  • Cover.jpg (118.2 KB)
  • Demons & Wizards - Touched by the King - Cd 2.log (2.8 KB)
  • Touched by the King - Cd 2.cue (0.9 KB)
  • Touched by the King - Cd 2.Flac.cue (0.9 KB)
  • Combined.txt (7.7 KB)
  • Folder.jpg (65.4 KB)
  • Info.txt (3.0 KB)

ИСПОЛНИТЕЛЬ: Demons & Wizards.

ИСПОЛНИТЕЛЬ: Demons & Wizards. Год, дата выхода: 2005/2019. 01. Crimson King (Remaster 2019) (5:46) 02. Beneath These Waves (Remaster 2019) (5:12) 03. Terror Train (Remaster 2019) (4:46) 04. Seize the Day (Remaster 2019) (5:23) 05. The Gunslinger (Remaster 2019) (5:14) 06. Love's Tragedy Asunder (Remaster 2019) (5:28) 07. Wicked Witch (Remaster 2019) (3:32) 08.

All Music Audio books Sound clips FLAC Other Movies Movies DVDR . Details for this torrent.

All Music Audio books Sound clips FLAC Other Movies Movies DVDR Music videos Movie clips TV shows Handheld HD - Movies HD - TV shows 3D Other Windows Mac UNIX Handheld IOS (iPad/iPhone) Android Other OS PC Mac PSx XBOX360 Wii Handheld IOS (iPad/iPhone) Android Other Movies Movies DVDR Pictures Games HD - Movies Movie clips Other E-books Comics Pictures Covers.

Touched by the Crimson King Touched By the Saviour The tower falls on Judgement Day Touched By the Crimson . Redeemer Deceiver The demon The man in black.

Touched by the Crimson King Touched By the Saviour The tower falls on Judgement Day Touched By the Crimson King Touched By the Saviour Like it's been written many years ago. I am the angel I am madness I am the word I am the law I am holding truth release your sadness I am the key I am the door Release! .

is the 'Test and Copy Selected Tracks' with the 'Create Cue Sheets - Multiple WAV Files With Gaps (NonCompliant)' ok for archiving to flac? I understand the

is the 'Test and Copy Selected Tracks' with the 'Create Cue Sheets - Multiple WAV Files With Gaps (NonCompliant)' ok for archiving to flac? I understand the. Is there a difference between the two methods as far as collection archiving is concerned? This is the way I've been doing it since it's easier to go back and decode individual songs instead of having to split them out of one big .wav file

ibit 10 - Immigrant Song. jpg118 KB. Demons & Wizards - Touched By The Crimson King - Cd . og5 KB. Info.

to Demons & mp; Wiz rds - Touched By The Crimson King Test& mp;Copy (Lossless Crew) Music. eu Demons & Wizards - Touched By The Crimson King (2005) {SPV 089-99490 2CD} audio. nfo3 KB. Touched By The Crimson King - C. lac. cue2 KB. Touched By The Crimson King - Cd . ue2 KB. 3u259 B. Cd 2.

Music albums mp3 & flac: 79313 total, 14544 on the free hosts. Demons & Wizards - Touched by the Crimson King (2005) flac

Music albums mp3 & flac: 79313 total, 14544 on the free hosts. Demons & Wizards - Touched by the Crimson King (2005) flac. Artist/Band: Demons & Wizards (United States). Album: Touched by the Crimson King. Disc 1: 1. Crimson King 2. Beneath These Waves 3. Terror Train 4. Seize the Day 5. The Gunslinger 6. Love's Tragedy Asunder 7. Wicked Witch 8. Dorian 9. Down Where I Am 10. Immigrant Song (Led Zeppelin cover). Издатель: Steamhammer Records Время: 01:06:46 Формат: lossless (image + cue + scans).

to is the largest czech cloud storage. Zobrazit/skrýt více obsahu.


Demons & Wizards
Touched By The King





Artist: Demons & Wizards
Album: Touched By The King
Genre: Power Metal
Source: CD
Year: 2005
Ripper: EAC, secure no C2, accurate stream, disable cache & NEC DVD RW ND-4551A
Codec: Free Lossless Audio Codec (FLAC)
Version: reference libFLAC 1.2.1 20070917
Quality: Lossless, (avg. compression: 75 %)
Channels: Stereo / 44100 HZ / 16 Bit
Tags: VorbisComment
Information: Label: SPV 089-99490 2CD
Included: NFO, LOG, CUE
Covers: Full Artwork

CD 1
1. (00:05:47) Demons & Wizards - King
2. (00:05:13) Demons & Wizards - Beneath These Waves
3. (00:04:46) Demons & Wizards - Terror Train
4. (00:05:23) Demons & Wizards - Seize The Day
5. (00:05:16) Demons & Wizards - The Gunslinger
6. (00:05:28) Demons & Wizards - Love's Tragedy Asunder
7. (00:03:32) Demons & Wizards - Wicked Witch
8. (00:06:36) Demons & Wizards - Dorian
9. (00:04:54) Demons & Wizards - Down Where I Am
10. (00:02:29) Demons & Wizards - Immigrant Song
CD 2
1. (00:04:04) Demons & Wizards - Lunar Lament
2. (00:03:57) Demons & Wizards - Wicked Witch (Slow Version)
3. (00:05:46) Demons & Wizards - Spatial Architects
4. (00:03:40) Demons & Wizards - Beneath These Waves (Edit)


Exact Audio Copy V0.99 prebeta 5 from 4. May 2009
EAC extraction logfile from 26. December 2010, 14:16
Demons & Wizards / Touched By The King - Cd 1
Used drive : _NEC DVD_RW ND-4551A Adapter: 2 ID: 2
Read mode : Secure
Utilize accurate stream : Yes
Defeat audio cache : Yes
Make use of C2 pointers : No
Read offset correction : 48
Overread into Lead-In and Lead-Out : No
Fill up missing offset samples with silence : Yes
Delete leading and trailing silent blocks : No
Null samples used in CRC calculations : Yes
Used interface : Native Win32 interface for Win NT & 2000
Gap handling : Appended to previous track
Used output format : User Defined Encoder
Selected bitrate : 768 kBit/s
Quality : High
Add ID3 tag : No
Command line compressor : C:ProgrammiExact Audio CopyFLACFLAC.EXE
Additional command line options : -8 -V -T "artist=%a" -T "title=%t" -T "album=%g" -T "date=%y" -T "tracknumber=%n" -T "genre=%m" %s
TOC of the extracted CD
Track | Start | Length | Start sector | End sector
-
1 | 0:00.00 | 5:47.17 | 0 | 26041
2 | 5:47.17 | 5:12.54 | 26042 | 49495
3 | 10:59.71 | 4:46.07 | 49496 | 70952
4 | 15:46.03 | 5:22.53 | 70953 | 95155
5 | 21:08.56 | 5:15.41 | 95156 | 118821
6 | 26:24.22 | 5:28.21 | 118822 | 143442
7 | 31:52.43 | 3:32.24 | 143443 | 159366
8 | 35:24.67 | 6:36.34 | 159367 | 189100
9 | 42:01.26 | 4:54.15 | 189101 | 211165
10 | 46:55.41 | 2:28.48 | 211166 | 222313
Track 1
Filename C:Documents and SettingsAdministratorDocumenti1 - King.wav
Pre-gap length 0:00:02.00
Peak level 99.6 %
Track quality 100.0 %
Test CRC 692ABDE9
Copy CRC 692ABDE9
Accurately ripped (confidence 64) [F2660614]
Copy OK
Track 2
Filename C:Documents and SettingsAdministratorDocumenti2 - Beneath These Waves.wav
Pre-gap length 0:00:00.03
Peak level 99.8 %
Track quality 100.0 %
Test CRC 6EC60390
Copy CRC 6EC60390
Accurately ripped (confidence 64) [79EBBDFF]
Copy OK
Track 3
Filename C:Documents and SettingsAdministratorDocumenti3 - Terror Train.wav
Pre-gap length 0:00:01.10
Peak level 99.3 %
Track quality 100.0 %
Test CRC A7B02F9E
Copy CRC A7B02F9E
Accurately ripped (confidence 65) [6DA27BA8]
Copy OK
Track 4
Filename C:Documents and SettingsAdministratorDocumenti4 - Seize The Day.wav
Pre-gap length 0:00:01.04
Peak level 99.8 %
Track quality 100.0 %
Test CRC B91E6EC6
Copy CRC B91E6EC6
Accurately ripped (confidence 64) [A9E303DC]
Copy OK
Track 5
Filename C:Documents and SettingsAdministratorDocumenti5 - The Gunslinger.wav
Pre-gap length 0:00:00.04
Peak level 99.1 %
Track quality 100.0 %
Test CRC 21109553
Copy CRC 21109553
Accurately ripped (confidence 64) [0BF1FD7D]
Copy OK
Track 6
Filename C:Documents and SettingsAdministratorDocumenti6 - Love's Tragedy Asunder.wav
Pre-gap length 0:00:01.61
Peak level 99.8 %
Track quality 100.0 %
Test CRC E50DB752
Copy CRC E50DB752
Accurately ripped (confidence 64) [D480E49E]
Copy OK
Track 7
Filename C:Documents and SettingsAdministratorDocumenti7 - Wicked Witch.wav
Pre-gap length 0:00:02.16
Peak level 84.4 %
Track quality 100.0 %
Test CRC 5E5A51F4
Copy CRC 5E5A51F4
Accurately ripped (confidence 63) [82116763]
Copy OK
Track 8
Filename C:Documents and SettingsAdministratorDocumenti8 - Dorian.wav
Peak level 99.9 %
Track quality 100.0 %
Test CRC E27A9F96
Copy CRC E27A9F96
Accurately ripped (confidence 64) [4BC35D62]
Copy OK
Track 9
Filename C:Documents and SettingsAdministratorDocumenti9 - Down Where I Am.wav
Pre-gap length 0:00:00.10
Peak level 99.7 %
Track quality 99.9 %
Test CRC 0580E143
Copy CRC 0580E143
Accurately ripped (confidence 64) [79B64720]
Copy OK
Track 10
Filename C:Documents and SettingsAdministratorDocumenti10 - Immigrant Song.wav
Peak level 99.6 %
Track quality 100.0 %
Test CRC 884C49A6
Copy CRC 884C49A6
Accurately ripped (confidence 62) [EC794A54]
Copy OK
All tracks accurately ripped
No errors occurred
End of status report
Exact Audio Copy V0.99 prebeta 5 from 4. May 2009
EAC extraction logfile from 26. December 2010, 15:12
Demons & Wizards / Touched by the King - Cd 2
Used drive : _NEC DVD_RW ND-4551A Adapter: 2 ID: 2
Read mode : Secure
Utilize accurate stream : Yes
Defeat audio cache : Yes
Make use of C2 pointers : No
Read offset correction : 48
Overread into Lead-In and Lead-Out : No
Fill up missing offset samples with silence : Yes
Delete leading and trailing silent blocks : No
Null samples used in CRC calculations : Yes
Used interface : Native Win32 interface for Win NT & 2000
Gap handling : Appended to previous track
Used output format : User Defined Encoder
Selected bitrate : 768 kBit/s
Quality : High
Add ID3 tag : No
Command line compressor : C:ProgrammiExact Audio CopyFLACFLAC.EXE
Additional command line options : -8 -V -T "artist=%a" -T "title=%t" -T "album=%g" -T "date=%y" -T "tracknumber=%n" -T "genre=%m" %s
TOC of the extracted CD
Track | Start | Length | Start sector | End sector
-
1 | 0:00.00 | 4:04.33 | 0 | 18332
2 | 4:04.33 | 3:56.54 | 18333 | 36086
3 | 8:01.12 | 5:46.14 | 36087 | 62050
4 | 13:47.26 | 3:40.23 | 62051 | 78573
Track 1
Filename C:Documents and SettingsAdministratorDocumenti1 - Lunar Lament.wav
Pre-gap length 0:00:02.00
Peak level 99.3 %
Track quality 100.0 %
Test CRC 36DCB3E8
Copy CRC 36DCB3E8
Accurately ripped (confidence 43) [0B58A9BA]
Copy OK
Track 2
Filename C:Documents and SettingsAdministratorDocumenti2 - Wicked Witch (Slow Version).wav
Peak level 75.3 %
Track quality 100.0 %
Test CRC 282293FB
Copy CRC 282293FB
Accurately ripped (confidence 44) [779B5830]
Copy OK
Track 3
Filename C:Documents and SettingsAdministratorDocumenti3 - Spatial Architects.wav
Peak level 99.9 %
Track quality 100.0 %
Test CRC 41791BB8
Copy CRC 41791BB8
Accurately ripped (confidence 44) [1204D034]
Copy OK
Track 4
Filename C:Documents and SettingsAdministratorDocumenti4 - Beneath These Waves (Edit).wav
Pre-gap length 0:00:00.01
Peak level 99.8 %
Track quality 100.0 %
Test CRC 9A68B224
Copy CRC 9A68B224
Accurately ripped (confidence 42) [99EB9465]
Copy OK
All tracks accurately ripped
No errors occurred
End of status report

Related music:
Get Scared - Demons mp3-320 kbps download Get Scared - Demons mp3-320 kbps
Album
English
94.9 MB
4.1
/images/5/4/get-scared-demons-mp3-320-kbps-.jpg
Alice in Chains - Greatest Hits download Alice in Chains - Greatest Hits
Album
English
86.9 MB
4.7
/images/5/1/alice-in-chains-greatest-hits.jpg
The Black Wizards - Lake of fire 2015 download The Black Wizards - Lake of fire 2015
Album
English
141.9 MB
4.8
/images/5/2/the-black-wizards-lake-of-fire-2015.jpg
Imagine Dragons - Demons 2013 download Imagine Dragons - Demons 2013
MP3
English
6.9 MB
4.7
/images/5/9/imagine-dragons-demons-2013.jpg
Gloryhammer - Space 1992-Rise of the Chaos Wizards2015ak Limited Edition 2CD download Gloryhammer - Space 1992-Rise of the Chaos Wizards2015ak Limited Edition 2CD
Album
English
224.1 MB
4.4
/images/5/6/gloryhammer-space-1992-rise-of-the-chaos-wizards2015ak-limited-edition-2cd.jpg
The Wizards - Full Moon In Scorpio 320KBPS 2017 download The Wizards - Full Moon In Scorpio 320KBPS 2017
MP3
English
185.1 MB
4.1
/images/5/7/the-wizards-full-moon-in-scorpio-320kbps-2017.jpg
Beethoven - Symphonies 5 & 7 download Beethoven - Symphonies 5 & 7
MP3
English
127.6 MB
4.4
/images/5/0/beethoven-symphonies-5-26-7.jpg
Uriah Heep - Demons And Wizards 2017 24-96 HD FLAC download Uriah Heep - Demons And Wizards 2017 24-96 HD FLAC
Lossless
English
1.7 GB
4.2
/images/5/0/uriah-heep-demons-and-wizards-2017-24-96-hd-flac.jpg