Files 42316
» » Telephone Jim Jesus A Point Too Far to Astronaut EAC FLAC,CUE A.C.U.M. 2004
Language: English
Size: 199.8 MB
Votes: 964
Downloaded: 30
Category: Lossless
Format: MP3, FLAC
4.6

File list

  • 01. War Toy.flac (12.8 MB)
  • 02. Bathroom Mirror.flac (14.6 MB)
  • 03. I'm Not Ok.flac (4.9 MB)
  • 04. N=1 Trial.flac (11.0 MB)
  • 05. Failure To Fly.flac (10.3 MB)
  • 06. Untitled Private Landscape.flac (10.4 MB)
  • 07. Guessing Tubes.flac (16.0 MB)
  • 08. The Ouroboros Tongue.flac (5.5 MB)
  • 09. Struck By Falling Object.flac (20.3 MB)
  • 10. A Blindness Falls (Part A).flac (2.3 MB)
  • 11. A Blindness Falls (Part B).flac (11.8 MB)
  • 12. Blue In The Face.flac (11.8 MB)
  • 13. Convertible Stingray.flac (9.2 MB)
  • 14. Little Boy One Eye.flac (14.7 MB)
  • 15. Sometimes.flac (15.6 MB)
  • 16. Two Clasping What They Dream Is One Another.flac (28.1 MB)
  • a point too far to astronaut....cue (2.5 KB)
  • a point too far to astronaut....log (6.7 KB)
  • Telephone Jim Jesus (2004) A Point Too Far to Astronaut....flac.cue (2.5 KB)
  • Telephone Jim Jesus (2004) A Point Too Far to Astronaut....jpeg (164.4 KB)
  • Telephone Jim Jesus (2004) A Point Too Far to Astronaut....m3u (0.5 KB)

Three years later, after a breakup with a long-term girlfriend led to months of traveling, both around Europe and the . TJJ issued Anywhere Out of Everything. Scheda tecnica : Band : Telephone Jim Jesus.

How to Listen, Download A Point Too Far to Astronaut. Full supports all version of your device, includes mp3, ogg and FLAC version. All album format are mobile-friendly. Listen online and download as many albums as you like for personal use. Get your file - Wish you have good luck and enjoy listening to your album.

Born George Chadwick in the small town of New London, NH, the boy who would later be known as the anticon artist Telephone Jim Jesus got his first taste of electronica when high-school friend and bandmate/singer Dave Bryant, who was then living a. .

Born George Chadwick in the small town of New London, NH, the boy who would later be known as the anticon artist Telephone Jim Jesus got his first taste of electronica when high-school friend and bandmate/singer Dave Bryant, who was then living at Chadwick's house, bought a sampler

B8Two Clasping What They Dream Is One Another.

B8Two Clasping What They Dream Is One Another. Anticon Item No: 23326. Vinyl LP 2004, US – Original New. 10,19 € 11,99 € -15%. VAT plus Shipping Costs. Sold out This item is sold out. Item Details.

Telephone Jim Jesus (2004) A Point Too Far to Astronaut. Telephone Jim Jesus (2007) Anywhere Out of the Everything

Telephone Jim Jesus (2004) A Point Too Far to Astronaut. to 200 MB 2013-05-31 0 0. Telephone Jim Jesus (2007) Anywhere Out of the Everything 1337x. to 285 MB 2013-05-31 0 0. Nazareth-Rock N Roll 014-WRE.

Дата релиза: 2004-11-08. Номер песни: 16. Продолжительность: 38:36.

5. Failure to Fly. Telephone Jim Jesus.

Студийный альбом от Telephone Jim Jesus. Вышел 8 ноября 2004г. 02:10. В альбом вошло 16 треков. Продолжительность альбома: 38:35.

Telephone Jim Jesus A Point Too Far to Astronaut... [EAC FLAC,CUE][A.C.U.M.]

Born George Chadwick in the small town of New London, NH, the boy who would later be known as the anticon artist Telephone Jim Jesus got his first taste of electronica when high-school friend and bandmate/singer Dave Bryant, who was then living at Chadwick's house, bought a sampler. Though the two, alongside drummer Matt Valerio, were in a hardcore goth-punk band, the less aggressive ideas in experimental rock, hip-hop, and electronica interested them, and the glitches, bleeps, drones, chords, and loops that those genres accommodated began to take hold of their music. By the time the trio made it out to Oakland in the late '90s, the idea of Restiform Bodies was born. The group -- Chadwick, Bryant (aka Passage), and Valerio (aka the Bomarr Monk), along with some help from their labelmates -- released their self-titled full-length in 2002, with Telephone Jim Jesus manning the keyboards, guitars, bass, effects, and sampler. He also produced tracks for other anticon artists, including Sole and Pedestrian, and in 2004 he came out with his own solo debut, the instrumental Point Too Far to Astronaut.... Three years later, after a breakup with a long-term girlfriend led to months of traveling, both around Europe and the U.S., TJJ issued Anywhere Out of Everything.
Fonte: allmusic
Scheda tecnica :
Band : Telephone Jim Jesus
CD : Telephone A Point Too Far to Astronaut...
Anno : 2004
Genere : Electronic
Styles : Alternative/Indie Rock, Indie Electronic
Songs :
01. War Toy
02. Bathroom Mirror
03. I'm Not Ok
04. N=1 Trial
05. Failure To Fly
06. Untitled Private Landscape
07. Guessing Tubes
08. The Ouroboros Tongue
09. Struck By Falling Object
10. A Blindness Falls (Part A)
11. A Blindness Falls (Part B)
12. Blue In The Face
13. Convertible Stingray
14. Little Boy One Eye
15. Sometimes
16. Two Clasping What They Dream Is One Another
EAC Log :

Code:


Exact Audio Copy V0.99 prebeta 4 from 23. January 2008
EAC extraction logfile from 26. May 2010, 18:07
Telephone Jim Jesus / A Point Too Far To Astronaut...
Used drive : SONY DVD RW AW-G540A Adapter: 1 ID: 0
Read mode : Secure
Utilize accurate stream : Yes
Defeat audio cache : Yes
Make use of C2 pointers : No
Read offset correction : 48
Overread into Lead-In and Lead-Out : No
Fill up missing offset samples with silence : Yes
Delete leading and trailing silent blocks : No
Null samples used in CRC calculations : Yes
Used interface : Native Win32 interface for Win NT & 2000
Gap handling : Appended to previous track
Used output format : User Defined Encoder
Selected bitrate : 128 kBit/s
Quality : High
Add ID3 tag : No
Command line compressor : C:Program FilesFLACflac.exe
Additional command line options : -V -8 -T "Artist=%a" -T "Title=%t" -T "Album=%g" -T "Date=%y" -T "Tracknumber=%n" -T "Genre=%m" %s
TOC of the extracted CD
Track | Start | Length | Start sector | End sector
-
1 | 0:00.00 | 2:13.52 | 0 | 10026
2 | 2:13.52 | 2:45.02 | 10027 | 22403
3 | 4:58.54 | 0:59.13 | 22404 | 26841
4 | 5:57.67 | 2:22.02 | 26842 | 37493
5 | 8:19.69 | 2:10.34 | 37494 | 47277
6 | 10:30.28 | 2:00.27 | 47278 | 56304
7 | 12:30.55 | 3:00.47 | 56305 | 69851
8 | 15:31.27 | 1:07.05 | 69852 | 74881
9 | 16:38.32 | 3:40.21 | 74882 | 91402
10 | 20:18.53 | 0:23.66 | 91403 | 93193
11 | 20:42.44 | 2:14.03 | 93194 | 103246
12 | 22:56.47 | 2:15.09 | 103247 | 113380
13 | 25:11.56 | 1:30.39 | 113381 | 120169
14 | 26:42.20 | 2:40.47 | 120170 | 132216
15 | 29:22.67 | 3:43.44 | 132217 | 148985
16 | 33:06.36 | 5:29.50 | 148986 | 173710
Track 1
Filename C:telephone jim jesus_a point too far to astronaut1-War Toy.wav
Pre-gap length 0:00:02.00
Peak level 94.4 %
Track quality 100.0 %
Test CRC A18178E1
Copy CRC A18178E1
Accurately ripped (confidence 1) [301AA4A4]
Copy OK
Track 2
Filename C:telephone jim jesus_a point too far to astronaut2-Bathroom Mirror.wav
Peak level 94.4 %
Track quality 99.9 %
Test CRC F8758262
Copy CRC F8758262
Accurately ripped (confidence 1) [F562F0B2]
Copy OK
Track 3
Filename C:telephone jim jesus_a point too far to astronaut3-I'm Not Ok.wav
Peak level 94.4 %
Track quality 100.0 %
Test CRC 15C1E023
Copy CRC 15C1E023
Accurately ripped (confidence 1) [02C8EB91]
Copy OK
Track 4
Filename C:telephone jim jesus_a point too far to astronaut4-N=1 Trial.wav
Peak level 94.4 %
Track quality 100.0 %
Test CRC D5249B12
Copy CRC D5249B12
Accurately ripped (confidence 1) [D9505019]
Copy OK
Track 5
Filename C:telephone jim jesus_a point too far to astronaut5-Failure To Fly.wav
Peak level 94.4 %
Track quality 100.0 %
Test CRC DB6D5464
Copy CRC DB6D5464
Accurately ripped (confidence 1) [4B3794C8]
Copy OK
Track 6
Filename C:telephone jim jesus_a point too far to astronaut6-Untitled Private Landscape.wav
Peak level 94.4 %
Track quality 100.0 %
Test CRC 41561088
Copy CRC 41561088
Accurately ripped (confidence 1) [ED43BE56]
Copy OK
Track 7
Filename C:telephone jim jesus_a point too far to astronaut7-Guessing Tubes.wav
Peak level 94.4 %
Track quality 99.9 %
Test CRC 7247E77B
Copy CRC 7247E77B
Accurately ripped (confidence 1) [A4CAFB3C]
Copy OK
Track 8
Filename C:telephone jim jesus_a point too far to astronaut8-The Ouroboros Tongue.wav
Peak level 94.4 %
Track quality 99.8 %
Test CRC 48853A9A
Copy CRC 48853A9A
Accurately ripped (confidence 1) [0A9FB16C]
Copy OK
Track 9
Filename C:telephone jim jesus_a point too far to astronaut9-Struck By Falling Object.wav
Peak level 94.4 %
Track quality 100.0 %
Test CRC 29345A90
Copy CRC 29345A90
Accurately ripped (confidence 1) [2BF96C5B]
Copy OK
Track 10
Filename C:telephone jim jesus_a point too far to astronaut10-A Blindness Falls (Part A).wav
Peak level 94.4 %
Track quality 99.5 %
Test CRC DBBAEFF3
Copy CRC DBBAEFF3
Accurately ripped (confidence 1) [5820E15B]
Copy OK
Track 11
Filename C:telephone jim jesus_a point too far to astronaut11-A Blindness Falls (Part B).wav
Peak level 94.4 %
Track quality 100.0 %
Test CRC 40646DE9
Copy CRC 40646DE9
Accurately ripped (confidence 1) [90DED93E]
Copy OK
Track 12
Filename C:telephone jim jesus_a point too far to astronaut12-Blue In The Face.wav
Peak level 94.4 %
Track quality 99.9 %
Test CRC 4144F194
Copy CRC 4144F194
Accurately ripped (confidence 1) [72D1CFAC]
Copy OK
Track 13
Filename C:telephone jim jesus_a point too far to astronaut13-Convertible Stingray.wav
Peak level 94.4 %
Track quality 100.0 %
Test CRC 1DA0EB7A
Copy CRC 1DA0EB7A
Accurately ripped (confidence 1) [37CDCB96]
Copy OK
Track 14
Filename C:telephone jim jesus_a point too far to astronaut14-Little Boy One Eye.wav
Peak level 94.4 %
Track quality 100.0 %
Test CRC 82E70AB8
Copy CRC 82E70AB8
Accurately ripped (confidence 1) [D0F6A80B]
Copy OK
Track 15
Filename C:telephone jim jesus_a point too far to astronaut15-Sometimes.wav
Peak level 94.4 %
Track quality 100.0 %
Test CRC 044A6490
Copy CRC 044A6490
Accurately ripped (confidence 1) [B8F0E7CC]
Copy OK
Track 16
Filename C:telephone jim jesus_a point too far to astronaut16-Two Clasping What They Dream Is One Another.wav
Peak level 94.4 %
Track quality 100.0 %
Test CRC 97811E59
Copy CRC 97811E59
Accurately ripped (confidence 1) [BF5B1610]
Copy OK
All tracks accurately ripped
No errors occurred
End of status report


Related music:
The Christians - The Christians 1987 EAC - FLAC download The Christians - The Christians 1987 EAC - FLAC
Lossless
English
364.6 MB
4.2
/images/5/8/the-christians-the-christians-1987-eac-flac.jpg
God Is An Astronaut - The End Of The Beginning 2003 download God Is An Astronaut - The End Of The Beginning 2003
Album
English
314.1 MB
4.6
/images/5/8/god-is-an-astronaut-the-end-of-the-beginning-2003.jpg
Telephone Jim Jesus Anywhere Out of the Everything EAC FLAC,CUE A.C.U.M. 2007 download Telephone Jim Jesus Anywhere Out of the Everything EAC FLAC,CUE A.C.U.M. 2007
Lossless
English
284.9 MB
4.7
/images/5/3/telephone-jim-jesus-anywhere-out-of-the-everything-eac-flac2ccue-acum-2007.jpg
Folkal Point-legendary rare UK folk album ; EAC FLAC 1972 download Folkal Point-legendary rare UK folk album ; EAC FLAC 1972
Lossless
English
270.6 MB
4.1
/images/5/8/folkal-point-legendary-rare-uk-folk-album-3b-eac-flac-1972.jpg
Hum - You'd Prefer An Astronaut FLAC 1995 download Hum - You'd Prefer An Astronaut FLAC 1995
Lossless
English
260.6 MB
4.3
/images/5/8/hum-you27d-prefer-an-astronaut-flac-1995.jpg
The Jesus and Mary Chain - Psychocandy FLAC-1985 trfkad download The Jesus and Mary Chain - Psychocandy FLAC-1985 trfkad
Lossless
English
293.2 MB
4.0
/images/5/3/the-jesus-and-mary-chain-psychocandy-flac-1985-trfkad.jpg
Sarah Mary Chadwick - Roses Always Die FLAC,Tracks 2016 download Sarah Mary Chadwick - Roses Always Die FLAC,Tracks 2016
Lossless
English
218.7 MB
4.3
/images/5/6/sarah-mary-chadwick-roses-always-die-flac2ctracks-2016.jpg