Files 42316
» » Alison Moyet - The Turn Flac 2007
Language: English
Size: 237.3 MB
Votes: 273
Downloaded: 35
Category: Lossless
Format: MP3, FLAC
4.9

File list

Alison Moyet - The Turn (2007) Flac
  • 01 - One More Time.flac (27.1 MB)
  • 02 - Anytime At All.flac (22.4 MB)
  • 03 - The Man In The Wings.flac (22.5 MB)
  • 04 - Can't Say It Like I Mean It.flac (37.2 MB)
  • 05 - It's Not The Thing Henry.flac (26.3 MB)
  • 06 - Fire.flac (24.2 MB)
  • 07 - The Sharpest Corner (Hollow).flac (27.8 MB)
  • 08 - World Without End.flac (12.4 MB)
  • 09 - Home.flac (18.6 MB)
  • 10 - Smaller.flac (17.9 MB)
  • [TGx]Downloaded from torrentgalaxy.org .txt (0.6 KB)
  • cover.jpg (959.1 KB)
  • dr14.txt (1.3 KB)
  • Torrent Downloaded from Glodls.to.txt (0.2 KB)
  • Torrent downloaded from limetorrents.cc.txt (0.1 KB)
  • Torrent Downloaded from worldwidetorrents.to (0.1 KB)

Alison Moyet - The Essential Alison Moyet DVD5. Alison Moyet - The Best of 25 Years Revisited (Flac).

Alison Moyet - The Essential Alison Moyet DVD5.

The Turn is the seventh studio album by the British singer-songwriter Alison Moyet, released by W14 Music in 2007. The album includes the singles "One More Time" and "A Guy Like You", as well as three tracks first written and performed in 2006 for stage play Smaller, in which Moyet starred with comedian and long-time friend Dawn French. The Turn was the singer's first release on the W14 Music label and debuted at number 21 on the UK Albums Chart on 22 October 2007, lasting four weeks in the chart.

Performer: Alison Moyet Album: The Minutes Label: Motley Music Limited, Cooking Vinyl Limited. Singles is the greatest hits album of singer Alison Moyet, released in 1995.

The Turn - Студийный альбом от Alison Moyet. Вышел 15 октября 2007г. The Sharpest Corner (Hollow). Can't Say It Like I Mean It. В альбом вошло 28 треков. Продолжительность альбома: 01:59:53. 05:41. The Man in the Wings. It's Not the Thing Henry.

Alison Moyet Turn 2007 Flac. Dear visitor, you have visited the site as an unregistered user. We recommend that you register or enter the site under your name. Related News : Alison Wonderland Radio Wonderland 112 Sat 27 06 (2019) 1king.

info n-(2007)-Flac Music. 07 - The Sharpest Corner (Hollow). flac28 MB. 08 - World Without En. lac12 MB. 09 - Home. co Alison Moyet - The Turn (2007) Flac Music. com Alison Moyet: The Turn (2007) Flac Music. ch n-(2007)-Flac Music. eu Alison Moyet - The Turn (2007) Flac audio.

Alison Moyet - Raindancing (1987)


Quality-Lossless
Release-1989
Duration-01:03:24
File Size-433.1 MB
Genre-Pop
Cover Size-1200px

Analyzed: The Turn / Artist: Alison Moyet
DR Peak RMS Duration Title [codec]
DR6 -0.08 dB -8.46 dB 4:00 01 - One More Time [flac]
DR7 -0.03 dB -10.85 dB 3:25 02 - Anytime At All [flac]
DR10 -0.55 dB -14.58 dB 4:29 03 - The Man In The Wings [flac]
DR8 -0.04 dB -10.04 dB 5:41 04 - Can't Say It Like I Mean It [flac]
DR6 -0.09 dB -8.50 dB 3:41 05 - It's Not The Thing Henry [flac]
DR8 -0.09 dB -12.57 dB 3:58 06 - Fire [flac]
DR7 -0.07 dB -9.49 dB 4:16 07 - The Sharpest Corner (Hollow) [flac]
DR11 -0.13 dB -17.14 dB 2:37 08 - World Without End [flac]
DR6 -0.00 dB -9.40 dB 2:49 09 - Home [flac]
DR9 -0.09 dB -12.18 dB 3:27 10 - Smaller [flac]
Number of files: 10
Official DR value: DR8
Sampling rate: 44100 Hz
Average bitrate: 850kbs
Bits per sample: 16 bit

Related music:
Erasure - Wild! 88.2-24bit Edition 1989 Remastered download Erasure - Wild! 88.2-24bit Edition 1989 Remastered
Lossless
English
2.1 GB
4.3
/images/5/0/erasure-wild21-882-24bit-edition-1989-remastered.jpg
Erasure - I Say I Say I Say 88.2-24bit 1994 download Erasure - I Say I Say I Say 88.2-24bit 1994
Lossless
English
821.6 MB
4.3
/images/5/8/erasure-i-say-i-say-i-say-882-24bit-1994.jpg
Sophie Zelmani - Memory Loves You Flac-was95 2007 download Sophie Zelmani - Memory Loves You Flac-was95 2007
Lossless
English
204.3 MB
4.3
/images/5/3/sophie-zelmani-memory-loves-you-flac-was95-2007.jpg
New Order - Technique Flac Remastered Collectors Edition 2008 download New Order - Technique Flac Remastered Collectors Edition 2008
Lossless
English
611.2 MB
4.9
/images/5/4/new-order-technique-flac-remastered-collectors-edition-2008.jpg
Dominic Sen - Visitor Flac 2019 download Dominic Sen - Visitor Flac 2019
Lossless
English
265.2 MB
4.0
/images/5/5/dominic-sen-visitor-flac-2019.jpg
Janice Hagan ‎– Let's Misbehave Flac 2004 download Janice Hagan ‎– Let's Misbehave Flac 2004
Lossless
English
410.2 MB
4.7
/images/5/6/janice-hagan-e2808ee28093-let27s-misbehave-flac-2004.jpg
Alison Moyet - The Turn FLAC 2015 download Alison Moyet - The Turn FLAC 2015
Lossless
English
746.1 MB
4.0
/images/5/9/alison-moyet-the-turn-flac-2015.jpg
Skillet - Awake 24-96 Hi-Res 2009 download Skillet - Awake 24-96 Hi-Res 2009
Lossless
English
904.9 MB
4.9
/images/5/2/skillet-awake-24-96-hi-res-2009.jpg
Alison Moyet - Singles FLAC-Cue - ausy 1995 download Alison Moyet - Singles FLAC-Cue - ausy 1995
Lossless
English
503.1 MB
4.4
/images/5/3/alison-moyet-singles-flac-cue-ausy-1995.jpg
Ozzy Osbourne - Diary Of A Madman Flac 1981 download Ozzy Osbourne - Diary Of A Madman Flac 1981
Lossless
English
304.4 MB
4.1
/images/5/2/ozzy-osbourne-diary-of-a-madman-flac-1981.jpg