Files 42316
» » Luiz Macedo-Bossa Electromagnetica EacFlacCue TntVillage
Language: Portuguese
Size: 339.8 MB
Votes: 674
Downloaded: 26
Category: Lossless
Format: MP3, FLAC
4.5

File list

  • 00._%LuizMacedo%Eletromagnetica%.nfo (2.1 KB)
  • 01 - Nova Bossa (Brand New Bossa).flac (23.0 MB)
  • 02 - Bossa Nova, Né.flac (24.6 MB)
  • 03 - Lounge Café.flac (29.4 MB)
  • 04 - Jongo Interlude.flac (11.0 MB)
  • 05 - Dr. Peçanha, Detective.flac (31.1 MB)
  • 06 - Bossa Pop.flac (23.7 MB)
  • 07 - Biscoitos Finos Para As Moças (Fine Cookies For Ladies).flac (24.9 MB)
  • 08 - Tudo Pode (Perder-se).flac (29.3 MB)
  • 09 - Coffe Machine.flac (24.2 MB)
  • 10 - Don't Let Gol.wav (39.3 MB)
  • 11 - Lazy Jam.wav (35.6 MB)
  • 12 - A Festa (The Party).wav (43.6 MB)
  • Bossa Electromagnética.cue (2.1 KB)
  • DSC00780.JPG (80.4 KB)
  • Luiz Macedo - Bossa Electromagnética.log (13.0 KB)
  • Luiz Macedo - Bossa Electromagnética.m3u (0.4 KB)

Luiz Macedo, Bossa Electromagnética. Filename F:MY EACLuiz Macedo-Bossa eletromagnetica1 - Nova Bossa (Brand New Bossa). Pre-gap length 0:00:02.

Luiz Macedo, Bossa Electromagnética. Peak level 9. % Extraction speed . X Track quality 9. % Test CRC 9D1CD58A Copy CRC 9D1CD58A Track not present in AccurateRip database Copy OK. Track 2. Filename F:MY EACLuiz Macedo-Bossa eletromagnetica2 - Bossa Nova, N. lac. Pre-gap length 0:00:01.

Bossa Electromagnética - Luiz Macedo. Luiz Macedo - Bossa Nova, Né? 03:50. Luiz Macedo - Lounge Café 04:39. Luiz Macedo - Jongo Interlude 01:46. Luiz Macedo - Dr. Peçanha, Detective 04:29. Luiz Macedo - Bossa Bop 03:23 04:27.

Orchestra Electromagnetica. Novo CD do músico e produtor Luiz Macedo, autor de Bossa Electromagnética. Orchestra Electromagnetica - CD completo, por Luiz Macedo. Com imagens do encarte. Orchestra Electromagnetica.

Nova Bossa, Brand New Bossa. 2. Bossa Nova, Né? 3:50.

The first cd of Luiz Macedo.

info Luiz Macedo-Bossa Electromagnetica(TntVilla Musica. org Luiz Macedo-Bossa Eletromagnetica(TntVillage) Music. me Luiz Macedo-Bossa eletromagnetica Music.

12. Lothlorien Cpasbien permet de télécharger des torrents. Lothlorien Cpasbien permet de télécharger des torrents de films, séries, musique, logiciels et jeux. Accès direct à 49110 torrents sans inscription et sans ratio !

Exact Audio Copy (Secure mode) & Asus CD-S520 Codec.

Exact Audio Copy (Secure mode) & Asus CD-S520 Codec. Free Lossless Audio Codec (FLAC) Version. reference libFLAC . Lossless, (avg. compression: 49 %) Channels. Stereo, 44100 HZ, 16 Bit Tags. Included are such well-known tracks as "Hello Dolly" and "What a Wonderful World" along with lesser-known gems as "When The Saints Go Marchin' In" and "La Vie En Rose".

Bossa Eletromagnetica is the First Solo Recording by Musician and Producer Luiz Macedo. An Electronic and Acustic View of Our Most International Groove. Vocal Participation by Stela Campos and Izy Gordon. Exclusive discount for Prime members. Sample this album Artist (Sample). 1. 30. Nova Bossa, Brand New Bossa.

Bossa Electromagnética. Luiz Macedo - Don´t Let Gol 03:53. Luiz Macedo - Nova Bossa, Brand New Bossa 03:32. Luiz Macedo - Jongo Interlude 01:46 04:27. Luiz Macedo - Bossa Bop 03:23.





Artist: Macedo Luiz
Title Of Album: Bossa Eletromagnetica
Etichetta: Juke
Pubblicazione: 2002
Genre: MPB
Style: Lounge/Esotica - Elettronica - Lounge/Chillout
Source: CD
Playing Time: 33.46
Total Size: 221,16 MB
Quality: FLAC+Cue+Log+Info+Cover
Bitrate: Lossless



1. Nova Bossa (Brand New Bossa) [03.32]
2. Bossa Nova, Né? [03.50]
3. Lounge Café [04.39]
4. Jongo Interlude [01.46]
5. Dr. Peçanha, Detective [04.29]
6. Bossa Pop [03.23]
7. Biscoitos Finos Para As Moças (Fine Cookies For Ladies) [04.27]
8. Tudo Pode (Perder-se) [03.59]
9. Coffe Machine [03.37]


Quello che vi presento è il cd di debutto di Luiz Macedo che in questo lavoro ci propone 12 tracce elettroniche ed acustiche del nostro groove più internazionale.
Buon ascolto a tutti!!

Quote:

Exact Audio Copy V1.0 beta 3 from 29. August 2011
EAC extraction logfile from 21. March 2012, 16:32
Luiz Macedo / Bossa Electromagnética
Used drive : HL-DT-STDVDRAM GSA-T40N Adapter: 0 ID: 0
Read mode : Secure
Utilize accurate stream : Yes
Defeat audio cache : Yes
Make use of C2 pointers : No
Read offset correction : 667
Overread into Lead-In and Lead-Out : No
Fill up missing offset samples with silence : Yes
Delete leading and trailing silent blocks : No
Null samples used in CRC calculations : Yes
Used interface : Native Win32 interface for Win NT & 2000
Gap handling : Appended to previous track
Used output format : User Defined Encoder
Selected bitrate : 896 kBit/s
Quality : High
Add ID3 tag : No
Command line compressor : C:Program FilesExact Audio CopyFLACFLAC.EXE
Additional command line options : -8 -V -T "ARTIST=%artist%" -T "TITLE=%title%" -T "ALBUM=%albumtitle%" -T "DATE=%year%" -T "TRACKNUMBER=%tracknr%" -T "GENRE=%genre%" -T "COMMENT=%comment%" -T "BAND=%albuminterpret%" -T "ALBUMARTIST=%albuminterpret%" -T "COMPOSER=%composer%" %haslyrics%--tag-from-file=LYRICS="%lyricsfile%"%haslyrics% -T "DISCNUMBER=%cdnumber%" -T "TOTALDISCS=%totalcds%" -T "TOTALTRACKS=%numtracks%" %hascover%--picture="%coverfile%"%hascover% %source% -o %dest%
TOC of the extracted CD
Track | Start | Length | Start sector | End sector
-
1 | 0:00.00 | 3:32.36 | 0 | 15935
2 | 3:32.36 | 3:50.02 | 15936 | 33187
3 | 7:22.38 | 4:39.19 | 33188 | 54131
4 | 12:01.57 | 1:46.02 | 54132 | 62083
5 | 13:47.59 | 4:29.39 | 62084 | 82297
6 | 18:17.23 | 3:23.38 | 82298 | 97560
7 | 21:40.61 | 4:27.66 | 97561 | 117651
8 | 26:08.52 | 3:59.52 | 117652 | 135628
9 | 30:08.29 | 3:37.59 | 135629 | 151962
10 | 33:46.13 | 3:53.66 | 151963 | 169503
11 | 37:40.04 | 3:31.28 | 169504 | 185356
12 | 41:11.32 | 4:19.26 | 185357 | 204807
Track 1
Filename F:MY EAC[.FLAC]Luiz Macedo-Bossa eletromagnetica�1 - Nova Bossa (Brand New Bossa).flac
Pre-gap length 0:00:02.00
Peak level 96.7 %
Extraction speed 1.8 X
Track quality 99.9 %
Test CRC 9D1CD58A
Copy CRC 9D1CD58A
Track not present in AccurateRip database
Copy OK
Track 2
Filename F:MY EAC[.FLAC]Luiz Macedo-Bossa eletromagnetica�2 - Bossa Nova, Né.flac
Pre-gap length 0:00:01.73
Peak level 96.6 %
Extraction speed 2.3 X
Track quality 100.0 %
Test CRC AF152772
Copy CRC AF152772
Track not present in AccurateRip database
Copy OK
Track 3
Filename F:MY EAC[.FLAC]Luiz Macedo-Bossa eletromagnetica�3 - Lounge Café.flac
Pre-gap length 0:00:01.73
Peak level 96.6 %
Extraction speed 2.1 X
Track quality 100.0 %
Test CRC DBB4CC1E
Copy CRC DBB4CC1E
Track not present in AccurateRip database
Copy OK
Track 4
Filename F:MY EAC[.FLAC]Luiz Macedo-Bossa eletromagnetica�4 - Jongo Interlude.flac
Pre-gap length 0:00:01.74
Peak level 96.6 %
Extraction speed 2.3 X
Track quality 100.0 %
Test CRC 04D0C722
Copy CRC 04D0C722
Track not present in AccurateRip database
Copy OK
Track 5
Filename F:MY EAC[.FLAC]Luiz Macedo-Bossa eletromagnetica�5 - Dr. Peçanha, Detective.flac
Pre-gap length 0:00:01.74
Peak level 96.6 %
Extraction speed 2.8 X
Track quality 100.0 %
Test CRC 4C1B9EE0
Copy CRC 4C1B9EE0
Track not present in AccurateRip database
Copy OK
Track 6
Filename F:MY EAC[.FLAC]Luiz Macedo-Bossa eletromagnetica�6 - Bossa Pop.flac
Pre-gap length 0:00:01.74
Peak level 96.7 %
Extraction speed 2.0 X
Track quality 99.9 %
Test CRC 2453E9CF
Copy CRC 2453E9CF
Track not present in AccurateRip database
Copy OK
Track 7
Filename F:MY EAC[.FLAC]Luiz Macedo-Bossa eletromagnetica�7 - Biscoitos Finos Para As Moças (Fine Cookies For Ladies).flac
Pre-gap length 0:00:01.74
Peak level 96.6 %
Extraction speed 2.2 X
Track quality 99.9 %
Test CRC C936FC92
Copy CRC C936FC92
Track not present in AccurateRip database
Copy OK
Track 8
Filename F:MY EAC[.FLAC]Luiz Macedo-Bossa eletromagnetica�8 - Tudo Pode (Perder-se).flac
Pre-gap length 0:00:01.74
Peak level 96.7 %
Extraction speed 2.2 X
Track quality 99.9 %
Test CRC 6DADC392
Copy CRC 6DADC392
Track not present in AccurateRip database
Copy OK
Track 9
Filename F:MY EAC[.FLAC]Luiz Macedo-Bossa eletromagnetica�9 - Coffe Machine.flac
Pre-gap length 0:00:01.74
Peak level 96.6 %
Extraction speed 2.2 X
Track quality 99.9 %
Test CRC 0A57DCB7
Copy CRC 0A57DCB7
Track not present in AccurateRip database
Copy OK
Track 10
Filename F:MY EAC[.FLAC]Luiz Macedo-Bossa eletromagnetica10 - Don't Let Gol.flac
Pre-gap length 0:00:01.74
Peak level 96.6 %
Extraction speed 2.7 X
Track quality 100.0 %
Test CRC 4F79600D
Copy CRC 4F79600D
Track not present in AccurateRip database
Copy OK
Track 11
Filename F:MY EAC[.FLAC]Luiz Macedo-Bossa eletromagnetica11 - Lazy Jam.flac
Pre-gap length 0:00:01.74
Peak level 96.6 %
Extraction speed 2.6 X
Track quality 100.0 %
Test CRC 49A1842F
Copy CRC 49A1842F
Track not present in AccurateRip database
Copy OK
Track 12
Filename F:MY EAC[.FLAC]Luiz Macedo-Bossa eletromagnetica12 - A Festa (The Party).flac
Pre-gap length 0:00:01.74
Peak level 96.7 %
Extraction speed 2.6 X
Track quality 99.9 %
Test CRC 81F51BD5
Copy CRC 81F51BD5
Track not present in AccurateRip database
Copy OK
None of the tracks are present in the AccurateRip database
No errors occurred
End of status report
==== Log checksum 41A66582C53EC4F3E60FF7266087816CA527B05B26A92B905205A1286168337D ====

Per i primi 10: 24 su 24:80/90 Kb/s

Related music:
BOSSA N´ MADONNA - Floresta 2011 download BOSSA N´ MADONNA - Floresta 2011
MP3
Portuguese
116.3 MB
4.9
/images/5/6/bossa-nc2b4-madonna-floresta-2011.jpg
Brazilian Tropical Orchestra - Beatles In Bossa Nova download Brazilian Tropical Orchestra - Beatles In Bossa Nova
Lossless
Italian
332.3 MB
4.2
/images/5/1/brazilian-tropical-orchestra-beatles-in-bossa-nova.jpg
Bossa In Rome 2018-BG mp3-320kbps download Bossa In Rome 2018-BG mp3-320kbps
MP3
English
225.7 MB
4.6
/images/5/6/bossa-in-rome-2018-bg-mp3-320kbps.jpg
Celso Fonseca - Rive Gauche Rio + Extra Songs Bossa Nova download Celso Fonseca - Rive Gauche Rio + Extra Songs Bossa Nova
MP3
English
89.7 MB
4.5
/images/5/5/celso-fonseca-rive-gauche-rio-2b-extra-songs-bossa-nova.jpg
Sylvia Telles, Lúcio Alves, Roberto Menescal ‎– Bossa Session Flac download Sylvia Telles, Lúcio Alves, Roberto Menescal ‎– Bossa Session Flac
Lossless
Portuguese
162.0 MB
4.2
/images/5/6/sylvia-telles2c-lc3bacio-alves2c-roberto-menescal-e2808ee28093-bossa-session-flac-.jpg
Various Artist - Tribute in Bossa to The Beatles EacFlaCue TntVillage download Various Artist - Tribute in Bossa to The Beatles EacFlaCue TntVillage
Lossless
English
312.6 MB
4.1
/images/5/9/various-artist-tribute-in-bossa-to-the-beatles-eacflacue-tntvillage.jpg
Freddy King Bossa Nova And Blues rogercc h33t blues flac download Freddy King Bossa Nova And Blues rogercc h33t blues flac
Lossless
English
180.2 MB
4.9
/images/5/6/freddy-king-bossa-nova-and-blues-rogercc-h33t-blues-flac.jpg
Tribute In Bossa To the Movie Flac download Tribute In Bossa To the Movie Flac
Lossless
English
280.1 MB
4.0
/images/5/2/tribute-in-bossa-to-the-movie-flac-.jpg
Toquinho - A Bossa Do Toquinho Flac Cue download Toquinho - A Bossa Do Toquinho Flac Cue
Lossless
Portuguese
165.0 MB
4.9
/images/5/2/toquinho-a-bossa-do-toquinho-flac-cue-.jpg
Lisa Ono - Lisa's Ono Bossa Hula Nova , Mp3 320 Kbps 2001 download Lisa Ono - Lisa's Ono Bossa Hula Nova , Mp3 320 Kbps 2001
MP3
Portuguese
110.0 MB
4.8
/images/5/4/lisa-ono-lisa27s-ono-bossa-hula-nova-2c-mp3-320-kbps-2001.jpg